Naruto Shippuden [Sub Esp][Cap 228][WU][1 Link]


Descargar Naruto Shippuden [Sub Esp][Cap 228][WU][1 Link] Gratis 1 link por Mega y Mediafire



Argentina Warez » Descargas Gratis » Anime y Manga Gratis Naruto Shippuden [Sub Esp][Cap 228][WU][1 Link]
08-sep-2011
JonUp
Premier User
Naruto Shippuden [Sub Esp][Cap 228][WU][1 Link]



Titulo: Naruto Shippuuden
Capitulo: 228
Idioma: Japones
Subtitulo: Español
Formato: .mp4
Duración: 00:23:09
Tamaño: 58MB



General
Complete name : /home/pierothe/public_html/rapidleech/files/Descargas-Directas/Naruto.Shippuden.Cap.228.mp4
Format : MPEG-4
Format profile : Base Media
Codec ID : isom
File size : 59.9 MiB
Duration : 23mn 9s
Overall bit rate : 362 Kbps
Encoded date : UTC 2011-09-08 12:12:17
Tagged date : UTC 2011-09-08 12:12:17

Video
ID : 1
Format : AVC
Format/Info : Advanced Video Codec
Format profile : High@L3.0
Format settings, CABAC : Yes
Format settings, ReFrames : 4 frames
Format settings, GOP : M=1, N=2
Codec ID : avc1
Codec ID/Info : Advanced Video Coding
Duration : 23mn 9s
Bit rate : 295 Kbps
Maximum bit rate : 2 339 Kbps
Width : 704 pixels
Height : 396 pixels
Display aspect ratio : 16:9
Frame rate mode : Constant
Frame rate : 23.810 fps
Color space : YUV
Chroma subsampling : 4:2:0
Bit depth : 8 bits
Scan type : Progressive
Bits/(Pixel*Frame) : 0.044
Stream size : 48.9 MiB (82%)
Writing library : x264 core 116 r2074 2641b9e
Encoding settings : cabac=1 / ref=3 / deblock=1:0:0 / analyse=0x3:0x113 / me=hex / subme=7 / psy=1 / psy_rd=1.00:0.00 / mixed_ref=1 / me_range=16 / chroma_me=1 / trellis=1 / 8x8dct=1 / cqm=0 / deadzone=21,11 / fast_pskip=1 / chroma_qp_offset=-2 / threads=6 / sliced_threads=0 / nr=0 / decimate=1 / interlaced=0 / bluray_compat=0 / constrained_intra=0 / bframes=3 / b_pyramid=2 / b_adapt=1 / b_bias=0 / direct=1 / weightb=1 / open_gop=0 / weightp=2 / keyint=250 / keyint_min=23 / scenecut=40 / intra_refresh=0 / rc_lookahead=40 / rc=2pass / mbtree=1 / bitrate=295 / ratetol=1.0 / qcomp=0.60 / qpmin=0 / qpmax=69 / qpstep=4 / cplxblur=20.0 / qblur=0.5 / ip_ratio=1.40 / aq=1:1.00
Encoded date : UTC 2011-09-08 12:12:17
Tagged date : UTC 2011-09-08 12:12:19

Audio
ID : 2
Format : AAC
Format/Info : Advanced Audio Codec
Format profile : HE-AAC / LC
Codec ID : 40
Duration : 23mn 9s
Bit rate mode : Variable
Bit rate : 63.8 Kbps
Maximum bit rate : 73.1 Kbps
Channel(s) : 2 channels
Channel positions : Front: L R
Sampling rate : 44.1 KHz / 22.05 KHz
Compression mode : Lossy
Stream size : 10.6 MiB (18%)
Encoded date : UTC 2011-09-08 12:12:19
Tagged date : UTC 2011-09-08 12:12:19



http://www.wupload.com/file/151907216

Saludos

Descargar Naruto Shippuden [Sub Esp][Cap 228][WU][1 Link] Gratis


08-sep-2011
ANTOMOR
White User
Re: Naruto Shippuden [Sub Esp][Cap 228][WU][1 Link]
graciaaaaaaaaaaaaaaaaaaaaaasssssssssssssssssssssss sssssssss
14-sep-2011
JonUp
Premier User
Re: Naruto Shippuden [Sub Esp][Cap 228][WU][1 Link]
Mañana posteo el 229
14-sep-2011
velkhas
Premier User
Re: Naruto Shippuden [Sub Esp][Cap 228][WU][1 Link]

Necesitás estar Registrado para dejar comentarios en la descarga Naruto Shippuden [Sub Esp][Cap 228][WU][1 Link]

Información del Post