Descargar Detective Conan Película 2: La decimocuarta víctima (1998) [DVDRip] [Latino] Gratis




Argentina Warez » Descargas Gratis » Anime y Manga Gratis Descargar Detective Conan Película 2: La decimocuarta víctima (1998) [DVDRip] [Latino] Gratis
11-feb-2012
kakaflo
Silver User
Descargar Detective Conan Película 2: La decimocuarta víctima (1998) [DVDRip] [Latino] Gratis



Título original: Juuyon banme no Tagetto
Título en inglés: The fourteenth target
Título en español: La decimocuarta víctima
Título en Hispanoamérica: La decimocuarta víctima
Título en catalán: La catorzena víctima
Dirección: Kanetsugu Kodama
Producción: Michihiko Suwa
Guión: Kazunari Kochi
Música: Katsuo Ohno
Año: 1998
Duración: 99 minutos

INFO DEL RIPEO
Spoiler
Código:
Format                                   : Matroska
Format version                           : Version 2
File size                                : 716 MiB
Duration                                 : 1h 39mn
Overall bit rate                         : 1 005 Kbps
Encoded date                             : UTC 2010-10-07 15:25:23
Writing application                      : mkvmerge v4.3.0 ('Escape from the Island') realizado en Sep  5 2010 10:30:51
Writing library                          : libebml v1.0.0 + libmatroska v1.0.0

Video
ID                                       : 1
Format                                   : AVC
Format/Info                              : Advanced Video Codec
Format profile                           : High@L3.0
Format settings, CABAC                   : Yes
Format settings, ReFrames                : 3 frames
Muxing mode                              : Header stripping
Codec ID                                 : V_MPEG4/ISO/AVC
Duration                                 : 1h 39mn
Bit rate                                 : 877 Kbps
Width                                    : 848 pixels
Height                                   : 480 pixels
Display aspect ratio                     : 16:9
Frame rate                               : 23.976 fps
Color space                              : YUV
Chroma subsampling                       : 4:2:0
Bit depth                                : 8 bits
Scan type                                : Progressive
Bits/(Pixel*Frame)                       : 0.090
Stream size                              : 611 MiB (85%)
Writing library                          : x264 core 67 r1127M 8d82fec
Encoding settings                        : cabac=1 / ref=3 / deblock=1:0:0 / analyse=0x3:0x133 / me=esa / subme=7 / psy_rd=2.0:0.0 / mixed_ref=1 / me_range=16 / chroma_me=1 / trellis=0 / 8x8dct=1 / cqm=0 / deadzone=21,11 / chroma_qp_offset=-2 / threads=3 / nr=0 / decimate=0 / mbaff=0 / bframes=16 / b_pyramid=1 / b_adapt=1 / b_bias=0 / direct=3 / wpredb=1 / keyint=250 / keyint_min=25 / scenecut=40 / rc=2pass / bitrate=877 / ratetol=1.0 / qcomp=0.60 / qpmin=10 / qpmax=51 / qpstep=4 / cplxblur=20.0 / qblur=0.5 / ip_ratio=1.40 / pb_ratio=1.30 / aq=1:1.00

Audio
ID                                       : 2
Format                                   : MPEG Audio
Format version                           : Version 1
Format profile                           : Layer 3
Muxing mode                              : Header stripping
Codec ID                                 : A_MPEG/L3
Codec ID/Hint                            : MP3
Duration                                 : 1h 39mn
Bit rate mode                            : Constant
Bit rate                                 : 128 Kbps
Channel(s)                               : 2 channels
Sampling rate                            : 44.1 KHz
Compression mode                         : Lossy
Stream size                              : 91.2 MiB (13%)

¿Que hay detrás de la verdadera histora de Kogoro Mouri? Un asesino, capturado por Kogoro Mouri cuando pertenecía al cuerpo de policía junto a Megure, es liberado de la cárcel. En pocos días empiezan a suceder unos asesinatos en serie, que tendrán como único objetivo vengarse de Kogoro Mouri. Lo que desconoce Kogoro es que su vida está a punto de correr un serio peligro y que están amenazados tanto antiguos amigos suyos como conocidos y familiares. Este asesino en serie cumple sus planes de forma impecable y ordenada en el que, después de cada asesinato, deja una carta de naipe cuyo número siempre coincide con el nombre de la siguiente víctima. ¿Por qué están asesinando a personas relacionadas con Kogoro Mouri? ¿Será capaz Conan de resolver el peligroso misterio?





Esto quiere decir que puedes descargar varios archivos desde distintos servidores a la vez.Esto resulta muy útil para gente sin cuentas premium o con conexiones lentas.


rakk







ABRE ESTE BLOC DE NOTAS PARA VER LOS ENLACES





SI TENÉIS ALGÚN PROBLEMA CON LOS LINKS, ETC. AVISAD POR MP.

Descargar Descargar Detective Conan Película 2: La decimocuarta víctima (1998) [DVDRip] [Latino] Gratis Gratis


18-feb-2012
kakaflo
Silver User
Re: Descargar Detective Conan Película 2: La decimocuarta víctima (1998) [DVDRip] [Latino] Gratis
resubidos los links a fooget y filefactory
13-mar-2012
gybym
New User
Re: Descargar Detective Conan Película 2: La decimocuarta víctima (1998) [DVDRip] [Latino] Gratis
gracias por el aporte
16-mar-2012
gybym
New User
Re: Descargar Detective Conan Película 2: La decimocuarta víctima (1998) [DVDRip] [Latino] Gratis
Gracias por el aporte
01-abr-2012
kakaflo
Silver User
Re: Descargar Detective Conan Película 2: La decimocuarta víctima (1998) [DVDRip] [Latino] Gratis
peli resubida a Mediafire y Rapidgator
01-abr-2012
Nefthaly Z
Gold User
Re: Descargar Detective Conan Película 2: La decimocuarta víctima (1998) [DVDRip] [Latino] Gratis
Excelente men
16-jul-2012
Necrolust666
Gold User
Re: Descargar Detective Conan Película 2: La decimocuarta víctima (1998) [DVDRip] [Latino] Gratis
gracias por el aporte compipa !
09-sep-2012
karlosvv
New User
Re: Descargar Detective Conan Película 2: La decimocuarta víctima (1998) [DVDRip] [Latino] Gratis
gracias por la pelicula
10-sep-2012
lvlml
Black User
Re: Descargar Detective Conan Película 2: La decimocuarta víctima (1998) [DVDRip] [Latino] Gratis
probando

Necesitás estar Registrado para dejar comentarios en Descargar Detective Conan Película 2: La decimocuarta víctima (1998) [DVDRip] [Latino] Gratis

Información del Post