Detective Conan Película 11: La bandera pirata en el vasto océano (2007) [DVDRip] [SubEspañol]




Argentina Warez » Descargas Gratis » Anime y Manga Gratis Detective Conan Película 11: La bandera pirata en el vasto océano (2007) [DVDRip] [SubEspañol]
18-feb-2012
kakaflo
Silver User
Detective Conan Película 11: La bandera pirata en el vasto océano (2007) [DVDRip] [SubEspañol]



TÍTULO ORIGINAL: Konpeki no Jori Roja
AÑO: 2007
DURACIÓN: 106 min.
PAÍS: Japonés con subtítulos en español

INFO DEL RIPEO
Spoiler
Código:
General
Complete name: Detective.Conan.Pelicula.11.La.bandera.pirata.en.el.vasto.oceano.SubEsp.avi
Format : AVI
Format/Info: Audio Video Interleave
File size: 866 MiB
Duration : 1h 46mn
Overall bit rate : 1 136 Kbps
Writing application: 3GP_Converter051103 www.nurs.or.jp/~calcium FFmpeg2.40b((51<<16)+(6<<8)+0)
Writing library: VirtualDub build 23648/release

Video
ID : 0
Format : MPEG-4 Visual
Format settings, BVOP: 1
Format settings, QPel: No
Format settings, GMC : No warppoints
Format settings, Matrix: Default (H.263)
Muxing mode: Packed bitstream
Codec ID : DX50
Codec ID/Hint: DivX 5
Duration : 1h 46mn
Bit rate : 1 060 Kbps
Width: 704 pixels
Height : 396 pixels
Display aspect ratio : 16:9
Frame rate : 29.000 fps
Color space: YUV
Chroma subsampling : 4:2:0
Bit depth: 8 bits
Scan type: Progressive
Compression mode : Lossy
Bits/(Pixel*Frame) : 0.131
Stream size: 809 MiB (93%)
Writing library: DivX 6.8.0 (UTC 2007-12-04)

Audio
ID : 1
Format : MPEG Audio
Format version : Version 1
Format profile : Layer 3
Mode : Joint stereo
Mode extension : MS Stereo
Codec ID : 55
Codec ID/Hint: MP3
Duration : 1h 46mn
Bit rate mode: Constant
Bit rate : 64.0 Kbps
Channel(s) : 2 channels
Sampling rate: 48.0 KHz
Compression mode : Lossy
Stream size: 48.8 MiB (6%)
Alignment: Split accross interleaves
Interleave, duration : 34 ms (1.00 video frame)
Interleave, preload duration : 500 ms
Writing library: LAME3.96.1

Conan y los niños viajan a una isla junto a Kogoro, Ran, Sonoko y Agasa. Los niños van resolviendo un mapa del tesoro mientras que Ran y Sonoko hacen buceo. Finalmente la historia de dos mujeres piratas y su barco escondido darán mucho juego en una aventura increíble, Ran se verá envuelta en un problema y Conan tratará de salvarla.





Esto quiere decir que puedes descargar varios archivos desde distintos servidores a la vez.Esto resulta muy útil para gente sin cuentas premium o con conexiones lentas.


rakk







ABRE ESTE BLOC DE NOTAS PARA VER LOS ENLACES





SI TENÉIS ALGÚN PROBLEMA CON LOS LINKS, ETC. AVISAD POR MP.

Descargar Detective Conan Película 11: La bandera pirata en el vasto océano (2007) [DVDRip] [SubEspañol] Gratis


01-abr-2012
kakaflo
Silver User
Re: Detective Conan Película 11: La bandera pirata en el vasto océano (2007) [DVDRip] [SubEspañol]
Peli resubida a Mediafire y Rapidgator
01-abr-2012
Nefthaly Z
Gold User
Re: Detective Conan Película 11: La bandera pirata en el vasto océano (2007) [DVDRip] [SubEspañol]
Excelente XP

Necesitás estar Registrado para dejar comentarios en Detective Conan Película 11: La bandera pirata en el vasto océano (2007) [DVDRip] [SubEspañol]

Información del Post