Futbol Argentino: Velez Sarsfield vs Tigre 16-06-2012 (Esp)(Multi)




Argentina Warez » Zona Libre » Foro Libre » Deportes Futbol Argentino: Velez Sarsfield vs Tigre 16-06-2012 (Esp)(Multi)
17-jun-2012
llanpac
Premium User
Futbol Argentino: Velez Sarsfield vs Tigre 16-06-2012 (Esp)(Multi)
Futbol Argentino: Velez Sarsfield vs Tigre 16-06-2012



Informacion del video:

Spoiler
Format : Matroska
Format version : Version 2
File size : 503 MiB
Duration : 46mn 50s
Overall bit rate : 1 501 Kbps
Encoded date : UTC 2012-06-17 09:25:07
Writing application : mkvmerge v5.5.0 ('Healer') built on Apr 6 2012 21:43:24
Writing library : libebml v1.2.3 + libmatroska v1.3.0

Video
ID : 2
Format : AVC
Format/Info : Advanced Video Codec
Format profile : High@L3.1
Format settings, CABAC : Yes
Format settings, ReFrames : 4 frames
Muxing mode : Header stripping
Codec ID : V_MPEG4/ISO/AVC
Duration : 46mn 50s
Bit rate : 1 400 Kbps
Width : 1 280 pixels
Height : 720 pixels
Display aspect ratio : 1.185
Frame rate : 25.000 fps
Color space : YUV
Chroma subsampling : 4:2:0
Bit depth : 8 bits
Scan type : Progressive
Bits/(Pixel*Frame) : 0.061
Stream size : 461 MiB (92%)
Writing library : x264 core 112 r1834 a51816a
Encoding settings : cabac=1 / ref=3 / deblock=1:0:0 / analyse=0x3:0x13 / me=hex / subme=7 / psy=1 / psy_rd=1.00:0.00 / mixed_ref=1 / me_range=16 / chroma_me=1 / trellis=1 / 8x8dct=1 / cqm=0 / deadzone=21,11 / fast_pskip=1 / chroma_qp_offset=-2 / threads=12 / sliced_threads=0 / nr=0 / decimate=1 / interlaced=0 / constrained_intra=0 / bframes=3 / b_pyramid=2 / b_adapt=1 / b_bias=0 / direct=1 / weightb=1 / open_gop=0 / weightp=2 / keyint=250 / keyint_min=25 / scenecut=40 / intra_refresh=0 / rc_lookahead=40 / rc=abr / mbtree=1 / bitrate=1400 / ratetol=1.0 / qcomp=0.60 / qpmin=10 / qpmax=51 / qpstep=4 / vbv_maxrate=1600 / vbv_bufsize=4000 / ip_ratio=1.40 / aq=1:1.00 / nal_hrd=none
Default : Yes
Forced : No

Audio
ID : 1
Format : MPEG Audio
Format version : Version 1
Format profile : Layer 3
Mode : Joint stereo
Mode extension : MS Stereo
Muxing mode : Header stripping
Codec ID : A_MPEG/L3
Codec ID/Hint : MP3
Duration : 46mn 50s
Bit rate mode : Constant
Bit rate : 96.0 Kbps
Channel(s) : 2 channels
Sampling rate : 44.1 KHz
Compression mode : Lossy
Delay relative to video : 8ms
Stream size : 32.2 MiB (6%)
Default : Yes
Forced : No


Enlaces Depositfiles:

http://depositfiles.com/files/6hbw485fo
http://depositfiles.com/files/0h1r91kn8

Enlaces Letitbit:

http://letitbit.net/download/51188.5...P-1st.rar.html
http://letitbit.net/download/92389.9...P-2nd.rar.html

Enlaces Rapidgator:

http://rapidgator.net/file/18827874/...P-1st.rar.html
http://rapidgator.net/file/18827974/...P-2nd.rar.html

Enlaces Freakshare:

http://freakshare.com/files/u6ntn4tr...P-1st.rar.html
http://freakshare.com/files/rb0u4d8m...P-2nd.rar.html

Saludos

Futbol Argentino: Velez Sarsfield vs Tigre 16-06-2012 (Esp)(Multi)


17-jun-2012
ricardosilver
Premier User
Re: Futbol Argentino: Velez Sarsfield vs Tigre 16-06-2012 (Esp)(Multi)
Muy bueno, lastima que no tengo espacio, ni medios para reproducirlo.

Necesitás estar Registrado para dejar comentarios en Futbol Argentino: Velez Sarsfield vs Tigre 16-06-2012 (Esp)(Multi)

Información del Post

  • Puntos Puntos: 0 |
  • Visitas Visitas: 384 |
  • Autor Publicado por: llanpac |
  • Categoría: Deportes