Descargar Tiesto – Club Life 245 [12 11 2011][MP3 Mix] Gratis




Argentina Warez » Descargas Gratis » Música Gratis » Electro Gratis Descargar Tiesto – Club Life 245 [12 11 2011][MP3 Mix] Gratis
12-dic-2011
erwinix
Premium User
Descargar Tiesto – Club Life 245 [12 11 2011][MP3 Mix] Gratis



Tiesto – Club Life 245 | 12 11 2011 | 2 MP3 Mix | 178 MB
Nombre Archivo: Tiesto.Club.Life.245.12.11.2011.MP3.Mix.By.Erwinix .For.Maya-Empire.Com.rar
Genero: House
Calidad: VBR
Tamaño: 178.88MB


Info Codificacion

Primer MP3
General

Complete name : 01-tiesto_-_club_life_245-cable-12-11-2011.mp3
Format : MPEG Audio
File size : 88.7 MiB
Duration : 57mn 29s
Overall bit rate : 216 Kbps
Album : Club Life 245-CABLE-12-11
Track name : Club Life 245-CABLE-12-11-2011
Track name/Position : 1
Performer : Tiesto
Genre : House
Recorded date : 2011
Writing library : LAME3.98r
Comment : TALiON

Audio
Format : MPEG Audio
Format version : Version 1
Format profile : Layer 3
Mode : Joint stereo
Duration : 57mn 29s
Bit rate mode : Variable
Bit rate : 216 Kbps
Minimum bit rate : 32.0 Kbps
Channel(s) : 2 channels
Sampling rate : 44.1 KHz
Compression mode : Lossy
Stream size : 88.7 MiB (100%)
Writing library : LAME3.98r
Encoding settings : -m j -V 0 -q 0 -lowpass 19.5 –vbr-new -b 32

Segundo MP3
General

Complete name : 02-tiesto_-_club_life_245-cable-12-11-2011.mp3
Format : MPEG Audio
File size : 90.2 MiB
Duration : 57mn 38s
Overall bit rate : 219 Kbps
Album : Club Life 245-CABLE-12-11
Track name : Club Life 245-CABLE-12-11-2011
Track name/Position : 2
Performer : Tiesto
Genre : House
Recorded date : 2011
Writing library : LAME3.98r
Comment : TALiON

Audio
Format : MPEG Audio
Format version : Version 1
Format profile : Layer 3
Mode : Joint stereo
Duration : 57mn 38s
Bit rate mode : Variable
Bit rate : 219 Kbps
Minimum bit rate : 32.0 Kbps
Channel(s) : 2 channels
Sampling rate : 44.1 KHz
Compression mode : Lossy
Stream size : 90.1 MiB (100%)
Writing library : LAME3.98r
Encoding settings : -m j -V 0 -q 0 -lowpass 19.5 –vbr-new -b 32





Sin contraseña | Facil Extraction | 1 Links


Descargar Descargar Tiesto – Club Life 245 [12 11 2011][MP3 Mix] Gratis Gratis



Necesitás estar Registrado para dejar comentarios en Descargar Tiesto – Club Life 245 [12 11 2011][MP3 Mix] Gratis

Información del Post

  • Puntos Puntos: 0 |
  • Visitas Visitas: 455 |
  • Autor Publicado por: erwinix |
  • Categoría: Electro Gratis