Daft Punk - Random Access Memories 2013




Argentina Warez » Descargas Gratis » Música Gratis Daft Punk - Random Access Memories 2013
29-oct-2013
jwesleaa4
Baneado ;(
Daft Punk - Random Access Memories 2013


Daft Punk - Random Access Memories (2013)
EAC Rip | FLAC Tracks + Cue + Log => 479 MB | MP3 CBR @320 kbps => 176 MB | Full scans => 74.6 MB
Label: Columbia Records | Catalog.#: 88883716862 | Genre: Electronic, Funk, Pop
"When Daft Punk announced they were releasing a new album eight years after 2005's Human After All, fans were starved for new material. The Tron: Legacy score indulged the seminal dance duo's sci-fi fantasies but didn't offer much in the way of catchy songs, so when Random Access Memories' extensive publicity campaign featured tantalizing clips of a new single, "Get Lucky," their fan base exploded. But when the album finally arrived, that hugely hyped single was buried far down its track list, emphasizing that most of these songs are very much not like "Get Lucky" -- or a lot of the pair's previous music, at least on the surface."

The album isn't much like 2010s EDM, either. Instead, Daft Punk separate themselves from most contemporary electronic music and how it's made, enlisting some of their biggest influences to help them get the sounds they needed without samples. On Homework's "Teachers," they reverently name-checked a massive list of musicians and producers; here, they place themselves on equal footing with disco masterminds Giorgio Moroder and Nile Rodgers, referring to them as "collaborators." That could be self-aggrandizing, yet it's also strangely humble when they take a back seat to their co-stars, especially on one of RAM's definitive moments, "Giorgio by Moroder," where the producer shares his thoughts on making music with wild guitar and synth solos trailing behind him. Elsewhere, Daft Punk nod to their symbiotic relationship with indie on the lovely "Doin' It Right," which makes the most of Panda Bear's boyish vocals, and on the Julian Casablancas cameo "Instant Crush," which is only slightly more electronic than the Strokes' Comedown Machine. And of course, Pharrell Williams is the avatar of their dancefloor mastery on the sweaty disco of "Lose Yourself to Dance" as well as "Get Lucky," which is so suave that it couldn't help but be an instant classic, albeit a somewhat nostalgic one. Indeed, "memories" is the album's keyword: Daft Punk celebrate the late '70s and early '80s with lavish homages like "Give Life Back to Music" -- one of several terrific showcases for Rodgers -- and the spot-on soft rock of the Todd Edwards collaboration "Fragments of Time." More importantly, Random Access Memories taps into the wonder and excitement in that era's music. A particularly brilliant example is "Touch," where singer/songwriter Paul Williams conflates his work in Phantom of the Paradise and The Muppet Movie in the song's mystique, charm, and fragile yet unabashed emotions. Often, there's an almost gooey quality to the album; Daft Punk have never shied away from "uncool" influences or sentimentality, and both are on full display here. At first, it's hard to know what to make of all the fromage, but Random Access Memories reveals itself as the kind of grand, album rock statement that listeners of the '70s and '80s would have spent weeks or months dissecting and absorbing -- the ambition of Steely Dan, Alan Parsons, and Pink Floyd are as vital to the album as any of the duo's collaborators. For the casual Daft Punk fan, this album might be harder to love than "Get Lucky" hinted; it might be too nostalgic, too overblown, a shirking of the group's duty to rescue dance music from the Young Turks who cropped up in their absence. But Random Access Memories is also Daft Punk's most personal work, and richly rewarding for listeners willing to spend time with it.

Allmusic"
Track Listing

01. Give Life Back To Music
02. The Game Of Love
03. Giorgio By Moroder
04. Within
05. Instant Crush (feat. Julian Casablancas)
06. Lose Yourself To Dance (feat. Pharrell Williams)
07. Touch (feat. Paul Williams)
08. Get Lucky (feat. Pharrell Williams)
09. Beyond
10. Motherboard
11. Fragments Of Time (feat. Todd Edwards)
12. Doin' It Right (feat. Panda Bear)
13. Contact

Exact Audio Copy V1.0 beta 3 from 29. August 2011

EAC extraction logfile from 16. May 2013, 20:38

Daft Punk / Random Access Memories

Used drive : LITE-ON DVDRW SOHW-1653S Adapter: 0 ID: 0

Read mode : Secure
Utilize accurate stream : Yes
Defeat audio cache : Yes
Make use of C2 pointers : No

Read offset correction : 12
Overread into Lead-In and Lead-Out : No
Fill up missing offset samples with silence : Yes
Delete leading and trailing silent blocks : No
Null samples used in CRC calculations : Yes
Used interface : Native Win32 interface for Win NT & 2000
Gap handling : Appended to previous track

Used output format : User Defined Encoder
Selected bitrate : 1024 kBit/s
Quality : High
Add ID3 tag : No
Command line compressor : C:\Program Files\Exact Audio Copy\FLAC\FLAC.EXE
Additional command line options : -8 -V -T "ARTIST=%artist%" -T "TITLE=%title%" -T "ALBUM=%albumtitle%" -T "DATE=%year%" -T "TRACKNUMBER=%tracknr%" -T "GENRE=%genre%" -T "PERFORMER=%albuminterpret%" -T "COMPOSER=%composer%" %haslyrics%--tag-from-file=LYRICS="%lyricsfile%"%haslyrics% -T "ALBUMARTIST=%albumartist%" -T "DISCNUMBER=%cdnumber%" -T "TOTALDISCS=%totalcds%" -T "TOTALTRACKS=%numtracks%" -T "COMMENT=%comment%" %source% -o %dest%

TOC of the extracted CD

Track | Start | Length | Start sector | End sector
---------------------------------------------------------
1 | 0:00.00 | 4:35.29 | 0 | 20653
2 | 4:35.29 | 5:22.11 | 20654 | 44814
3 | 9:57.40 | 9:04.47 | 44815 | 85661
4 | 19:02.12 | 3:48.38 | 85662 | 102799
5 | 22:50.50 | 5:37.42 | 102800 | 128116
6 | 28:28.17 | 5:53.67 | 128117 | 154658
7 | 34:22.09 | 8:18.72 | 154659 | 192080
8 | 42:41.06 | 6:09.47 | 192081 | 219802
9 | 48:50.53 | 4:50.18 | 219803 | 241570
10 | 53:40.71 | 5:41.49 | 241571 | 267194
11 | 59:22.45 | 4:39.58 | 267195 | 288177
12 | 64:02.28 | 4:11.22 | 288178 | 307024
13 | 68:13.50 | 6:23.47 | 307025 | 335796

Track 1

Filename P:\01 - Give Life Back to Music.wav

Pre-gap length 0:00:02.00

Peak level 100.0 %
Extraction speed 6.1 X
Track quality 100.0 %
Test CRC D2D3286C
Copy CRC D2D3286C
Track not present in AccurateRip database
Copy OK

Track 2

Filename P:\02 - The Game of Love.wav

Peak level 100.0 %
Extraction speed 6.2 X
Track quality 100.0 %
Test CRC CD5EABC2
Copy CRC CD5EABC2
Track not present in AccurateRip database
Copy OK

Track 3

Filename P:\03 - Giorgio by Moroder.wav

Peak level 100.0 %
Extraction speed 6.2 X
Track quality 100.0 %
Test CRC 2ED63A9D
Copy CRC 2ED63A9D
Track not present in AccurateRip database
Copy OK

Track 4

Filename P:\04 - Within.wav

Peak level 100.0 %
Extraction speed 6.0 X
Track quality 100.0 %
Test CRC 7E8D8045
Copy CRC 7E8D8045
Track not present in AccurateRip database
Copy OK

Track 5

Filename P:\05 - Instant Crush.wav

Peak level 100.0 %
Extraction speed 6.1 X
Track quality 100.0 %
Test CRC 58B0EF8C
Copy CRC 58B0EF8C
Track not present in AccurateRip database
Copy OK

Track 6

Filename P:\06 - Lose Yourself to Dance.wav

Peak level 100.0 %
Extraction speed 5.8 X
Track quality 99.9 %
Test CRC DB062806
Copy CRC DB062806
Track not present in AccurateRip database
Copy OK

Track 7

Filename P:\07 - Touch.wav

Peak level 100.0 %
Extraction speed 5.9 X
Track quality 99.9 %
Test CRC B6ACB1EF
Copy CRC B6ACB1EF
Track not present in AccurateRip database
Copy OK

Track 8

Filename P:\08 - Get Lucky.wav

Peak level 100.0 %
Extraction speed 6.1 X
Track quality 100.0 %
Test CRC 85157281
Copy CRC 85157281
Track not present in AccurateRip database
Copy OK

Track 9

Filename P:\09 - Beyond.wav

Peak level 100.0 %
Extraction speed 6.1 X
Track quality 100.0 %
Test CRC F6F2C3CE
Copy CRC F6F2C3CE
Track not present in AccurateRip database
Copy OK

Track 10

Filename P:\10 - Motherboard.wav

Peak level 100.0 %
Extraction speed 6.0 X
Track quality 100.0 %
Test CRC DE9CDD94
Copy CRC DE9CDD94
Track not present in AccurateRip database
Copy OK

Track 11

Filename P:\11 - Fragments of Time.wav

Peak level 100.0 %
Extraction speed 6.0 X
Track quality 100.0 %
Test CRC 392DA47E
Copy CRC 392DA47E
Track not present in AccurateRip database
Copy OK

Track 12

Filename P:\12 - Doin' it Right.wav

Peak level 100.0 %
Extraction speed 5.4 X
Track quality 99.9 %
Test CRC EE09C94F
Copy CRC EE09C94F
Track not present in AccurateRip database
Copy OK

Track 13

Filename P:\13 - Contact.wav

Peak level 100.0 %
Extraction speed 4.9 X
Track quality 100.0 %
Test CRC 99502D65
Copy CRC 99502D65
Track not present in AccurateRip database
Copy OK

None of the tracks are present in the AccurateRip database

No errors occurred

End of status report

---- CUETools DB Plugin V2.1.4

[CTDB TOCID: Q_EyzaI7_eOeuq58RBdeV4gzkMI-] found
Submit result: Q_EyzaI7_eOeuq58RBdeV4gzkMI- has been confirmed
Track | CTDB Status
1 | (7/7) Accurately ripped
2 | (7/7) Accurately ripped
3 | (7/7) Accurately ripped
4 | (7/7) Accurately ripped
5 | (7/7) Accurately ripped
6 | (7/7) Accurately ripped
7 | (7/7) Accurately ripped
8 | (7/7) Accurately ripped
9 | (7/7) Accurately ripped
10 | (7/7) Accurately ripped
11 | (7/7) Accurately ripped
12 | (7/7) Accurately ripped
13 | (7/7) Accurately ripped

==== Log checksum C30EBE68C761225580218BF4A116EC5E793ED6592D77A04E9C 5E941BA8E7EC54 ====

[CUETools log; Date: 10/28/2013 6:06:53 PM; Version: 2.1.4]
[AccurateRip ID: 00247185-016cbf42-b5117d0d] found.
Track [ CRC | V2 ] Status
01 [05fc4265|0e3ffa9d] (046+200/304) Accurately ripped
02 [2055392f|0bbbbb40] (045+200/302) Accurately ripped
03 [6907b514|6c3322a5] (045+200/301) Accurately ripped
04 [38490298|bc14cb1c] (045+200/301) Accurately ripped
05 [6dcfe218|d553d2bf] (045+200/300) Accurately ripped
06 [b18ff34c|2ba91ddb] (045+200/299) Accurately ripped
07 [70561028|7a0477db] (045+200/297) Accurately ripped
08 [b6e4561d|b42be91e] (046+200/299) Accurately ripped
09 [f0764a35|acc5d498] (045+200/299) Accurately ripped
10 [6e8fba10|3930d700] (045+200/300) Accurately ripped
11 [3855facf|807ab923] (045+200/300) Accurately ripped
12 [fd8fb8e3|2986cde7] (045+200/297) Accurately ripped
13 [986ebf59|1b9a92e3] (044+200/301) Accurately ripped
Offsetted by -646:
01 [67a5b9c3] (002/304) Accurately ripped
02 [421a5d6d] (002/302) Accurately ripped
03 [f4e0d673] (002/301) Accurately ripped
04 [f0847adf] (002/301) Accurately ripped
05 [4283572a] (002/300) Accurately ripped
06 [571713a0] (002/299) Accurately ripped
07 [882a6684] (003/297) Accurately ripped
08 [2c965a9a] (003/299) Accurately ripped
09 [80f4d8bf] (002/299) Accurately ripped
10 [e932c464] (002/300) Accurately ripped
11 [6ace0f72] (002/300) Accurately ripped
12 [3e7dc888] (002/297) Accurately ripped
13 [d6556d8c] (003/301) Accurately ripped
Offsetted by -36:
01 [68edbaa8] (000/304) No match (V2 was not tested)
02 [f51a4227] (000/302) No match (V2 was not tested)
03 [b13c92e5] (000/301) No match (V2 was not tested)
04 [7c51e018] (000/301) No match (V2 was not tested)
05 [ea5399b6] (000/300) No match (V2 was not tested)
06 [b1d61fe6] (000/299) No match (V2 was not tested)
07 [711fc59d] (000/297) No match (V2 was not tested)
08 [a3e6e9c0] (000/299) No match (V2 was not tested)
09 [fa393ad9] (000/299) No match (V2 was not tested)
10 [21d9178f] (000/300) No match (V2 was not tested)
11 [a861df5b] (000/300) No match (V2 was not tested)
12 [a69e6ea0] (000/297) No match (V2 was not tested)
13 [802b99ec] (000/301) No match (V2 was not tested)
Offsetted by -30:
01 [12da6635] (000/304) No match (V2 was not tested)
02 [4d31580f] (000/302) No match (V2 was not tested)
03 [36a08543] (000/301) No match (V2 was not tested)
04 [26effc30] (000/301) No match (V2 was not tested)
05 [5de7947f] (000/300) No match (V2 was not tested)
06 [16a2937d] (000/299) No match (V2 was not tested)
07 [6ef347b8] (000/297) No match (V2 was not tested)
08 [f27a50b8] (000/299) No match (V2 was not tested)
09 [9607c7cd] (000/299) No match (V2 was not tested)
10 [43bffba4] (000/300) No match (V2 was not tested)
11 [54155669] (000/300) No match (V2 was not tested)
12 [c10c2ab1] (000/297) No match (V2 was not tested)
13 [6ea1d488] (000/301) No match (V2 was not tested)
Offsetted by -12:
01 [aa28cf3a] (000/304) No match (V2 was not tested)
02 [39c69a37] (000/302) No match (V2 was not tested)
03 [d87054b1] (000/301) No match (V2 was not tested)
04 [c281f707] (000/301) No match (V2 was not tested)
05 [5a7984a9] (000/300) No match (V2 was not tested)
06 [4c4a123a] (000/299) No match (V2 was not tested)
07 [b0375114] (000/297) No match (V2 was not tested)
08 [a9916ff7] (000/299) No match (V2 was not tested)
09 [df2ea861] (000/299) No match (V2 was not tested)
10 [438af216] (000/300) No match (V2 was not tested)
11 [2181ff3e] (000/300) No match (V2 was not tested)
12 [f49bfc15] (000/297) No match (V2 was not tested)
13 [cd14283c] (000/301) No match (V2 was not tested)
Offsetted by 6:
01 [d9f8dce0] (002/304) Accurately ripped
02 [b386a3ee] (002/302) Accurately ripped
03 [ed872a82] (002/301) Accurately ripped
04 [119a6a4e] (002/301) Accurately ripped
05 [516d90d3] (002/300) Accurately ripped
06 [1838ae4e] (002/299) Accurately ripped
07 [7237d72d] (002/297) Accurately ripped
08 [308a8f2d] (002/299) Accurately ripped
09 [c71273ee] (002/299) Accurately ripped
10 [a9729e08] (002/300) Accurately ripped
11 [e560f89f] (002/300) Accurately ripped
12 [15eec2b6] (000/297) No match (V2 was not tested)
13 [774cc9c7] (002/301) Accurately ripped

Track Peak [ CRC32 ] [W/O NULL] [ LOG ]
-- 100.0 [A0EBAA66] [E518D5F1]
01 100.0 [D2D3286C] [55A01F3D] CRC32
02 100.0 [CD5EABC2] [437D047F] CRC32
03 100.0 [2ED63A9D] [C9A55650] CRC32
04 100.0 [7E8D8045] [017ED904] CRC32
05 100.0 [58B0EF8C] [4E5418AB] CRC32
06 100.0 [DB062806] [DC0D119F] CRC32
07 100.0 [B6ACB1EF] [DE637257] CRC32
08 100.0 [85157281] [61008477] CRC32
09 100.0 [F6F2C3CE] [7850348F] CRC32
10 100.0 [DE9CDD94] [ABD515C6] CRC32
11 100.0 [392DA47E] [95BF33F9] CRC32
12 100.0 [EE09C94F] [D8AC5706] CRC32
13 100.0 [99502D65] [938C5498] CRC32

Featured artists
* Daft Punk - vocals, modular synthesizer, keyboards, guitar, production, concept, art direction
* Panda Bear - vocals on track 12
* Julian Casablancas - vocals, lead guitar, co-production on track 5
* Todd Edwards - vocals, co-production on track 11
* DJ Falcon - modular synthesizer (with Daft Punk) and co-production on track 13
* Chilly Gonzales - keyboards on track 1; piano on track 4
* Giorgio Moroder - voice on track 3
* Nile Rodgers - guitar on tracks 1, 6, 8
* Paul Williams - vocals on track 7; lyrics on track 9
* Pharrell Williams - vocals on tracks 6, 8

Additional musicians
* Greg Leisz - pedal steel guitar, lap steel guitar on tracks 1-3, 7-11, 14
* Chris Caswell - keyboards on tracks 1-4, 7-11, 14; orchestration, arrangements
* Paul Jackson, Jr. - guitar on tracks 1-3, 7-11, 14
* Nathan East - bass on tracks 1-6, 8, 11, 14
* James Genus - bass on tracks 3, 7, 9-11, 13
* John "J.R." Robinson - drums on tracks 1-6, 14
* Omar Hakim - drums on tracks 3, 7-11, 13
* Quinn - percussion on tracks 1, 3-5, 7, 10, 11
* Thomas Bloch - ondes Martenot on track 7; cristal baschet on track 10

Released: 17 May 2013
Recorded Date: 2008, 2010-2012; Paris (Gang Recording Studio), New York City (Electric Lady Studios), Los Angeles (Henson Recording Studios, Capitol Studios, Conway Recording Studios)
Format: CD, Album
Length: 1:14:37
Producer: Thomas Bangalter, Guy-Manuel de Homem-Christo


Mant Thanks to Zephyr

If you have any questions about this publication, please send me a private message.

password: www.AvaxHome.ru


DESCARGA:




Uploaded DESCARGA
http://uploaded.net/file/cdhuqqyo/ej...less.part1.rar
http://uploaded.net/file/7gceyrev/ej...less.part2.rar
http://uploaded.net/file/1ys1xmx7/ej...AMD2013mp3.rar
http://uploaded.net/file/sldhowgx/ej...D2013Scans.rar

TurboBit DESCARGA
http://turbobit.net/86d7dwa5rbh2/ejh...part2.rar.html
http://turbobit.net/us4xe5gk3v20/ejh...13mp3.rar.html
http://turbobit.net/w3a7smpichss/ejh...Scans.rar.html

Links are Interchangeable - No Password - Single Extraction

Descargar Daft Punk - Random Access Memories 2013 Gratis



Necesitás estar Registrado para dejar comentarios en Daft Punk - Random Access Memories 2013

Información del Post

  • Puntos Puntos: 0 |
  • Visitas Visitas: 315 |
  • Autor Publicado por: jwesleaa4 |
  • Categoría: Música Gratis