World Trade Center (2006) [HDRip][Drama][Castellano]


Descargar World Trade Center (2006) [HDRip][Drama][Castellano] Película Gratis 1 link por Mega y Mediafire



Argentina Warez » Descargas Gratis » Películas Gratis World Trade Center (2006) [HDRip][Drama][Castellano]
28-sep-2010
grandeyjugueton
Gold User
World Trade Center (2006) [HDRip][Drama][Castellano]


TÍTULO ORIGINAL: World Trade Center (WTC)
AÑO: 2006
DURACIÓN: 125 min.
PAÍS: USA
DIRECTOR: Oliver Stone
GUIÓN: Andrea Berloff (Historia: John McLoughlin, Donna McLoughlin, William Jimeno, Allison Jimeno)
MÚSICA: Craig Armstrong
FOTOGRAFÍA: Seamus McGarvey
REPARTO: Nicolas Cage, Michael Peña, Maria Bello, Maggie Gyllenhaal, Jude Ciccolella, Stephen Dorff, Armando Riesco, Jay Hernandez, Michael Shannon, Donna Murphy, Nicholas Turturro
PRODUCTORA: Paramount Pictures
GÉNERO: Drama | Terrorismo. 11-S. Basado en hechos reales

Media Info

General
Complete name : C:\Program Files\JDownloader\downloads\world trade center[HDRip][Castellano].avi
Format : AVI
Format/Info : Audio Video Interleave
File size : 2.45 GiB
Duration : 2h 3mn
Overall bit rate : 2 830 Kbps

Video
ID : 0
Format : MPEG-4 Visual
Format profile : Simple@L3
Format settings, BVOP : No
Format settings, QPel : No
Format settings, GMC : No warppoints
Format settings, Matrix : Default (H.263)
Codec ID : XVID
Codec ID/Hint : XviD
Duration : 2h 3mn
Bit rate : 2 371 Kbps
Width : 720 pixels
Height : 400 pixels
Display aspect ratio : 16:9
Frame rate : 25.000 fps
Color space : YUV
Chroma subsampling : 4:2:0
Bit depth : 8 bits
Scan type : Progressive
Bits/(Pixel*Frame) : 0.329
Stream size : 2.05 GiB (84%)
Writing library : XviD 1.1.2 (UTC 2006-11-01)

Audio
ID : 1
Format : AC-3
Format/Info : Audio Coding 3
Mode extension : CM (complete main)
Codec ID : 2000
Duration : 2h 3mn
Bit rate mode : Constant
Bit rate : 448 Kbps
Channel(s) : 6 channels
Channel positions : Front: L C R, Side: L R, LFE
Sampling rate : 48.0 KHz
Bit depth : 16 bits
Stream size : 397 MiB (16%)
Alignment : Aligned on interleaves
Interleave, duration : 32 ms (0.80 video frame)
Interleave, preload duration : 1056 ms


Sinopsis:

Oliver Stone, premiado por la Academia, relata la verdadera historia de supervivencia y heroico rescate de John McLoughlin y Will Jimeno, dos policías pertenecientes a la Autoridad Portuaria de Nueva York, que quedaron atrapados en los escombros del World Trade Center el 11 de septiembre de 2001 después de intentar ayudar a la gente a salir de las torres..


Caps




Enlaces Intercambiables



http://uploading.com/files/1ae7b37m/...ton.part1.rar/
http://uploading.com/files/3a1ad6fa/...ton.part2.rar/
http://uploading.com/files/76damfme/...ton.part3.rar/
http://uploading.com/files/1388e8e7/...ton.part4.rar/
http://uploading.com/files/6a3bb3f1/...ton.part5.rar/
http://uploading.com/files/d32e4m9c/...ton.part6.rar/



http://www.fileserve.com/file/MtGeX2Q/wrldtrdcntr[HDR]-grandeyjugueton.part1.rar
http://www.fileserve.com/file/J7Vc3Kf/wrldtrdcntr[HDR]-grandeyjugueton.part2.rar
http://www.fileserve.com/file/ZxcjeXH/wrldtrdcntr[HDR]-grandeyjugueton.part3.rar
http://www.fileserve.com/file/2TFe4ez/wrldtrdcntr[HDR]-grandeyjugueton.part4.rar
http://www.fileserve.com/file/Maydv6A/wrldtrdcntr[HDR]-grandeyjugueton.part5.rar
http://www.fileserve.com/file/C7aSQEr/wrldtrdcntr[HDR]-grandeyjugueton.part6.rar

Descargar World Trade Center (2006) [HDRip][Drama][Castellano] Pelicula Gratis



Necesitás estar Registrado para dejar comentarios en la descarga World Trade Center (2006) [HDRip][Drama][Castellano]

Información del Post

  • Puntos Puntos: 0 |
  • Visitas Visitas: 925 |
  • Autor Publicado por: grandeyjugueton |
  • Categoría: Películas Gratis