Las mejores peliculas Polemicas


Descargar Las mejores peliculas Polemicas Película Gratis 1 link por Mega y Mediafire



Argentina Warez » Descargas Gratis » Películas Gratis Las mejores peliculas Polemicas
13-oct-2010
mandrilpe
Premium User
Las mejores peliculas Polemicas




Milos, un ex-actor porno, intenta llevar una vida normal junto a su esposa y su pequeño hijo. Su situación económica no pasa por un buen momento por lo que acepta una repentina propuesta de una ex-compañera, la cual termina por involucrarlo con un peligroso mafioso que le ofrece maravillas para regresar a su antiguo trabajo. La diferencia en este caso es que en el transcurso de las grabaciones Milos irá descubriendo que estas involucran actos cada vez más degradantes, lo cual lo llevará a un inevitable conflicto. Milos tendrá que sacrificar todo: su orgullo, su moralidad, su cordura, y tal vez incluso su propia vida.



Código:
Format                           : AVI
Format/Info                      : Audio Video Interleave
File size                        : 698 MiB
Duration                         : 1h 43mn
Overall bit rate                 : 941 Kbps

Video
ID                               : 0
Format                           : MPEG-4 Visual
Format profile                   : Advanced Simple@L5
Format settings, BVOP            : 1
Format settings, QPel            : No
Format settings, GMC             : No warppoints
Format settings, Matrix          : Default (H.263)
Muxing mode                      : Packed bitstream
Codec ID                         : XVID
Codec ID/Hint                    : XviD
Duration                         : 1h 43mn
Bit rate                         : 549 Kbps
Width                            : 720 pixels
Height                           : 304 pixels
Display aspect ratio             : 2.35:1
Frame rate                       : 23.976 fps
Color space                      : YUV
Chroma subsampling               : 4:2:0
Bit depth                        : 8 bits
Scan type                        : Progressive
Compression mode                 : Lossy
Bits/(Pixel*Frame)               : 0.105
Stream size                      : 407 MiB (58%)
Writing library                  : XviD 1.2.1 (UTC 2008-12-04)

Audio
ID                               : 1
Format                           : AC-3
Format/Info                      : Audio Coding 3
Mode extension                   : CM (complete main)
Codec ID                         : 2000
Duration                         : 1h 43mn
Bit rate mode                    : Constant
Bit rate                         : 384 Kbps
Channel(s)                       : 2 channels
Channel positions                : Front: L R
Sampling rate                    : 48.0 KHz
Bit depth                        : 16 bits
Compression mode                 : Lossy
Stream size                      : 285 MiB (41%)
Alignment                        : Aligned on interleaves
Interleave, duration             : 64 ms (1.53 video frames)
Interleave, preload duration     : 192 ms
Title                            : saimorny-a.serbian.film.1080p


http://f7e4a8e6.cash4files.com

Contraseña: http://descargaswarez.info







GÉNERO Y CRÍTICA: Drama / Ambientada en el húmedo y caluroso Mississippi, narra la historia de un hombre de pocas luces casado con una joven de 19 años, a cuyo padre -un rico terrateniente- ha prometido que la respetará hasta su mayoría de edad. Causante de una gran polémica en su estreno -fue duramente condenado por la Legion of Decency -Legión de Decencia- americana, fue sin embargo uno de los grandes éxitos de Kazan. Carroll Baker -actriz principal-, Mildred Dunnock -actriz secundaria- y el guión fueron nominados al Oscar. (FILMAFFINITY)



Código:
Format                           : AVI
Format/Info                      : Audio Video Interleave
File size                        : 1.29 GiB
Duration                         : 1h 54mn
Overall bit rate                 : 1 615 Kbps
Director                         : Minyatur
Writing application              : VirtualDubMod 1.5.10.1 (build 2366/release)
Writing library                  : VirtualDubMod build 2366/release

Video
ID                               : 0
Format                           : MPEG-4 Visual
Format profile                   : Simple@L3
Format settings, BVOP            : 2
Format settings, QPel            : No
Format settings, GMC             : No warppoints
Format settings, Matrix          : Default (H.263)
Codec ID                         : XVID
Codec ID/Hint                    : XviD
Duration                         : 1h 54mn
Bit rate                         : 1 345 Kbps
Width                            : 576 pixels
Height                           : 432 pixels
Display aspect ratio             : 4:3
Frame rate                       : 25.000 fps
Color space                      : YUV
Chroma subsampling               : 4:2:0
Bit depth                        : 8 bits
Scan type                        : Progressive
Compression mode                 : Lossy
Bits/(Pixel*Frame)               : 0.216
Stream size                      : 1.08 GiB (83%)
Writing library                  : XviD 1.0.3 (UTC 2004-12-20)

Audio #1
ID                               : 1
Format                           : MPEG Audio
Format version                   : Version 1
Format profile                   : Layer 3
Codec ID                         : 55
Codec ID/Hint                    : MP3
Duration                         : 1h 54mn
Bit rate mode                    : Constant
Bit rate                         : 128 Kbps
Channel(s)                       : 2 channels
Sampling rate                    : 48.0 KHz
Compression mode                 : Lossy
Delay relative to video          : 16ms
Stream size                      : 105 MiB (8%)
Alignment                        : Split accross interleaves
Interleave, duration             : 40 ms (1.00 video frame)
Interleave, preload duration     : 500 ms

Audio #2
ID                               : 2
Format                           : MPEG Audio
Format version                   : Version 1
Format profile                   : Layer 3
Codec ID                         : 55
Codec ID/Hint                    : MP3
Duration                         : 1h 54mn
Bit rate mode                    : Constant
Bit rate                         : 128 Kbps
Channel(s)                       : 2 channels
Sampling rate                    : 48.0 KHz
Compression mode                 : Lossy
Delay relative to video          : 16ms
Stream size                      : 105 MiB (8%)
Alignment                        : Split accross interleaves
Interleave, duration             : 40 ms (1.00 video frame)
Interleave, preload duration     : 500 ms
Contraseña: No Tiene!






Gran Bretaña, en un futuro indeterminado. Alex (Malcolm McDowell) es un joven hiperagresivo con dos pasiones: la ultraviolencia y Beethoven. Al frente de su banda, los drugos, los jóvenes descargan sus instintos más violentos pegando, violando y aterrorizando a la población. Cuando esa escalada de terror llega hasta el crimen, Alex es detenido y, en prisión, se someterá voluntariamente a una innovadora experiencia de reeducación que pretende anular drásticamente cualquier atisbo de conducta antisocial…





Código:
Format                           : AVI
Format/Info                      : Audio Video Interleave
File size                        : 706 MiB
Duration                         : 2h 16mn
Overall bit rate                 : 722 Kbps

Video
ID                               : 0
Format                           : MPEG-4 Visual
Format profile                   : Advanced Simple@L5
Format settings, BVOP            : 2
Format settings, QPel            : No
Format settings, GMC             : No warppoints
Format settings, Matrix          : Default (MPEG)
Codec ID                         : XVID
Codec ID/Hint                    : XviD
Duration                         : 2h 16mn
Bit rate                         : 570 Kbps
Width                            : 656 pixels
Height                           : 384 pixels
Display aspect ratio             : 16:9
Frame rate                       : 23.976 fps
Color space                      : YUV
Chroma subsampling               : 4:2:0
Bit depth                        : 8 bits
Scan type                        : Interlaced
Scan order                       : Bottom Field First
Compression mode                 : Lossy
Bits/(Pixel*Frame)               : 0.094
Stream size                      : 558 MiB (79%)
Writing library                  : XviD 1.2.1 (UTC 2008-12-04)

Audio
ID                               : 1
Format                           : AAC
Format/Info                      : Advanced Audio Codec
Format profile                   : LC
Codec ID                         : FF
Duration                         : 2h 16mn
Bit rate                         : 138 Kbps
Channel(s)                       : 2 channels
Channel positions                : Front: L R
Sampling rate                    : 48.0 KHz
Compression mode                 : Lossy
Stream size                      : 135 MiB (19%)
Alignment                        : Split accross interleaves
Interleave, duration             : 21 ms (0.51 video frame)
Interleave, preload duration     : 203 ms
Title                            : VTS_01_1 T81 2_0ch 192Kbps DELAY 0ms


http://dad9971c.cash4files.com

Contraseña: No Tiene!







Pelicula debatida del cine culto del cine italiano. Esta lleno de imágenes violentas, horribles. El film narra la supuesta historia de un equipo de pelicula dirigida por Alan Yates (Gabriel York) que desapareció mientras realizada un documental en las selvas del Amazonas. Trucos magistrales y efectos especiales del cine creó una visión inquietante de la suerte del equipo.
Espeluznantes, escenas realistas de futuro incluidas en una castración / desmembramiento, algunos golpes con martillos grandes, se alimentan de las tripas, un aborto forzado, numerosos sacrificios de animales (incluyendo un asesinato horrible de tortuga), violación en grupo y el empalamiento de una mujer en un poste.
Por su trabajo el director fue detenido por las autoridades italianas bajo la sospecha de los cargos de asesinato y de la vida. Al pelicula estuvo envuelta en juicio legal. Se determinó quemar todas las cintas pero luego al aparecer los actores la sentencia fue anulada.
La pelicula fue prohibida durante 20 años en algunos países, incluyendo Reino Unido.



Código:
 Format                           : RealMedia
File size                        : 446 MiB
Duration                         : 1h 35mn
Overall bit rate                 : 637 Kbps
Movie name                       : Talento de Barrio
Copyright                        : Vago_Azul

Video
ID                               : 1
Format                           : RealVideo 4
Codec ID                         : RV40
Codec ID/Info                    : Based on AVC (H.264), Real Player 9
Duration                         : 1h 35mn
Bit rate                         : 572 Kbps
Width                            : 512 pixels
Height                           : 288 pixels
Display aspect ratio             : 16:9
Frame rate                       : 23.976 fps
Bits/(Pixel*Frame)               : 0.162
Stream size                      : 392 MiB (88%)

Audio
ID                               : 0
Format                           : Cooker
Codec ID                         : cook
Codec ID/Info                    : Based on G.722.1, Real Player 6
Duration                         : 1h 35mn
Bit rate                         : 64.1 Kbps
Channel(s)                       : 2 channels
Sampling rate                    : 44.1 KHz
Bit depth                        : 16 bits
Stream size                      : 43.9 MiB (10%)


http://3e323c6a.cash4files.com







La hija de un matrimonio que posee grandes extensiones de cafetales en la selva del Amazonas pasa sus vacaciones junto a sus padres. En una excursión por el río Amazonas son atacados por un grupo de caníbales que asesinan a su familia. Ella es la única superviviente y es trasladada a la aldea donde el supuesto asesino de sus padres la pretenderá como mujer. Es en el poblado donde se da cuenta que a veces las cosas no son como parecen.



Código:
Format                           : AVI
Format/Info                      : Audio Video Interleave
File size                        : 706 MiB
Duration                         : 1h 25mn
Overall bit rate                 : 1 158 Kbps
Writing application              : VirtualDubMod 1.4.13
Writing library                  : VirtualDub build 14328/release

Video
ID                               : 0
Format                           : MPEG-4 Visual
Format settings, BVOP            : Yes
Format settings, QPel            : No
Format settings, GMC             : No warppoints
Format settings, Matrix          : Default (H.263)
Codec ID                         : DX50
Codec ID/Hint                    : DivX 5
Duration                         : 1h 25mn
Bit rate                         : 1 020 Kbps
Width                            : 640 pixels
Height                           : 384 pixels
Display aspect ratio             : 1.667
Frame rate                       : 25.000 fps
Color space                      : YUV
Chroma subsampling               : 4:2:0
Bit depth                        : 8 bits
Scan type                        : Progressive
Compression mode                 : Lossy
Bits/(Pixel*Frame)               : 0.166
Stream size                      : 622 MiB (88%)
Writing library                  : DivX 5.0.1 (UTC 2002-04-09)

Audio
ID                               : 1
Format                           : MPEG Audio
Format version                   : Version 1
Format profile                   : Layer 3
Codec ID                         : 55
Codec ID/Hint                    : MP3
Duration                         : 1h 25mn
Bit rate mode                    : Constant
Bit rate                         : 128 Kbps
Channel(s)                       : 2 channels
Sampling rate                    : 44.1 KHz
Compression mode                 : Lossy
Delay relative to video          : 26ms
Stream size                      : 78.0 MiB (11%)
Alignment                        : Split accross interleaves
Interleave, duration             : 40 ms (1.00 video frame)
Interleave, preload duration     : 499 ms


http://93650875.cash4files.com






Después de un accidente aéreo, dos expedicionarios quedan perdidos en la selva. Uno de ellos es capturado por una tribu de caníbales que planean festejar su llegada cenándolo.



Código:
Format                           : AVI
Format/Info                      : Audio Video Interleave
File size                        : 580 MiB
Duration                         : 1h 28mn
Overall bit rate                 : 919 Kbps
Writing application              : VirtualDubMod 1.5.10.1 (build 2366/release)
Writing library                  : VirtualDubMod build 2366/release

Video
ID                               : 0
Format                           : MPEG-4 Visual
Format settings, BVOP            : 1
Format settings, QPel            : No
Format settings, GMC             : No warppoints
Format settings, Matrix          : Default (H.263)
Muxing mode                      : Packed bitstream
Codec ID                         : DX50
Codec ID/Hint                    : DivX 5
Duration                         : 1h 28mn
Bit rate                         : 779 Kbps
Width                            : 672 pixels
Height                           : 288 pixels
Display aspect ratio             : 2.35:1
Frame rate                       : 29.970 fps
Color space                      : YUV
Chroma subsampling               : 4:2:0
Bit depth                        : 8 bits
Scan type                        : Progressive
Compression mode                 : Lossy
Bits/(Pixel*Frame)               : 0.134
Stream size                      : 492 MiB (85%)
Writing library                  : DivX 6.1.1 (UTC 2006-02-01)

Audio
ID                               : 1
Format                           : MPEG Audio
Format version                   : Version 1
Format profile                   : Layer 3
Codec ID                         : 55
Codec ID/Hint                    : MP3
Duration                         : 1h 28mn
Bit rate mode                    : Constant
Bit rate                         : 128 Kbps
Channel(s)                       : 2 channels
Sampling rate                    : 44.1 KHz
Compression mode                 : Lossy
Stream size                      : 80.8 MiB (14%)
Alignment                        : Split accross interleaves
Interleave, duration             : 33 ms (1.00 video frame)
Interleave, preload duration     : 500 ms


http://c83f7995.cash4files.com






Esta lujosa épica de Roman Empire fue escrita por Gore Vidal y co-financiado por adultos productores orientados a la revista Penthouse de Bob Guccione, aunque el guión se reescribió varias veces hasta encontrar la satisfacción de Gore. Se anunciaba como "la película más controvertida del siglo 20" - y fue la película porno más cara jamás hecha.
La película contó con un reparto de lujo encabezado por Malcolm McDowell, Peter O'Toole, John Gielgud y Helen Mirren, quien 25 años después ganaría el Oscar por encarnar a Isabel II de Inglaterra en The Queen.
La pretensión del director Tinto Brass fue abordar la biografía de Calígula combinando espectáculo y emociones desatadas, lo bello y lo grotesco, con cierta influencia del Satyricon de Federico Fellini. Pero la intervención del productor de la película, Bob Guccione, editor de prensa erótica (Penthouse), terminó condicionando el resultado final.
Así, Tinto Brass denunció que el productor Guccione había incluido sin su consentimiento escenas X, rodadas por otro equipo a sus espaldas. Por esa razón ahora hay dos versiones: la pensada por Brass, más o menos atrevida pero apta para salas comerciales, y una versión extendida, alargada por el productor Bob Guccione con planos de sexo real: coitos, felaciones hetero y homosexuales, eyaculaciones, lluvia dorada y pinceladas de zoofilia y sadomasoquismo. Estas escenas fueron rodadas por figurantes de cine pornográfico, no por los actores principales, y se intercalaron, en su mayoría, en el tramo final de la película, durante una orgía en un barco.
La película suscitó críticas para todos los gustos y quedó más bien como un hito del cine erótico, más que histórico. Con el tiempo, su estética bizarra la convirtió en una obra de culto.




Código:
 
Format                           : AVI
Format/Info                      : Audio Video Interleave
File size                        : 1.35 GiB
Duration                         : 2h 29mn
Overall bit rate                 : 1 290 Kbps

Video
ID                               : 0
Format                           : MPEG-4 Visual
Format settings, BVOP            : Yes
Format settings, QPel            : No
Format settings, GMC             : No warppoints
Format settings, Matrix          : Default (H.263)
Codec ID                         : DX50
Codec ID/Hint                    : DivX 5
Duration                         : 2h 29mn
Bit rate                         : 1 149 Kbps
Width                            : 720 pixels
Height                           : 528 pixels
Display aspect ratio             : 4:3
Frame rate                       : 25.000 fps
Color space                      : YUV
Chroma subsampling               : 4:2:0
Bit depth                        : 8 bits
Scan type                        : Progressive
Compression mode                 : Lossy
Bits/(Pixel*Frame)               : 0.121
Stream size                      : 1.20 GiB (89%)
Title                            : NeoVideo92CF
Writing library                  : DivX 5.0.2 (UTC 2002-05-16)

Audio
ID                               : 1
Format                           : MPEG Audio
Format version                   : Version 1
Format profile                   : Layer 3
Mode                             : Joint stereo
Mode extension                   : MS Stereo
Codec ID                         : 55
Codec ID/Hint                    : MP3
Duration                         : 2h 29mn
Bit rate mode                    : Constant
Bit rate                         : 128 Kbps
Channel(s)                       : 2 channels
Sampling rate                    : 48.0 KHz
Compression mode                 : Lossy
Stream size                      : 137 MiB (10%)
Alignment                        : Split accross interleaves
Interleave, duration             : 24 ms (0.60 video frame)


http://760aa4fc.cash4files.com






Rodeada de polémica -la actriz Ángela Molina, que iba a protagonizar el film, se retiró del proyecto ante lo explícito de las imágenes-, la adaptación de la novela homónima de Almudena Grandes obtuvo, pese a todo -o quizá gracias al morbo- un gran éxito de taquilla. Lulú es una niña de quince años que sucumbe a los atractivos de Pablo, un amigo de la familia. Después de esta experiencia, Lulú alimenta durante años el deseo por ese hombre que volverá a entrar en su vida un tiempo más tarde, prolongando así el juego amoroso de la niñez. Pablo crea para ella un mundo aparte, un universo privado donde el tiempo carece de valor. Pero pronto este mundo idealizado se va a quebrar, cuando una Lulú de treinta años penetre en el infierno de los deseos prohibidos.



Código:
 
Format                           : AVI
Format/Info                      : Audio Video Interleave
File size                        : 669 MiB
Duration                         : 1h 35mn
Overall bit rate                 : 980 Kbps

Video
ID                               : 0
Format                           : MPEG-4 Visual
Format settings, BVOP            : No
Format settings, QPel            : No
Format settings, GMC             : No warppoints
Format settings, Matrix          : Default (H.263)
Codec ID                         : DX50
Codec ID/Hint                    : DivX 5
Duration                         : 1h 35mn
Bit rate                         : 778 Kbps
Width                            : 720 pixels
Height                           : 576 pixels
Display aspect ratio             : 5:4
Frame rate                       : 23.976 fps
Standard                         : PAL
Color space                      : YUV
Chroma subsampling               : 4:2:0
Bit depth                        : 8 bits
Scan type                        : Progressive
Compression mode                 : Lossy
Bits/(Pixel*Frame)               : 0.078
Stream size                      : 531 MiB (79%)
Writing library                  : DivX 5.2.1 (DrDivX 106) (UTC 2004-09-08)

Audio
ID                               : 1
Format                           : MPEG Audio
Format version                   : Version 1
Format profile                   : Layer 3
Codec ID                         : 55
Codec ID/Hint                    : MP3
Duration                         : 1h 35mn
Bit rate mode                    : Constant
Bit rate                         : 192 Kbps
Channel(s)                       : 2 channels
Sampling rate                    : 44.1 KHz
Compression mode                 : Lossy
Delay relative to video          : 26ms
Stream size                      : 131 MiB (20%)
Alignment                        : Split accross interleaves
Interleave, duration             : 42 ms (1.00 video frame)
Title                            : Audio Stream
Writing library                  : LAME3.92


http://fd32598e.cash4files.com






Humbert Humbert (Jeremy Irons) es un profesor de literatura que se verá atraído por una joven adolescente llamada Lolita (Dominique Swain), hija de Charlotte Haze (Melanie Griffith), la mujer que le ha alquilado una habitación en su hogar. Al mismo tiempo que Lolita llama la atención de Humbert, Charlotte se enamorará de su inquilino. Pelicula del ex-publicista "Adrian Lyne" sobre la adaptación de la famosa novela de Vladimir Nabokov. Una inevitable comparación con la versión del genial Kubrick ofrece un sorprendente saldo favorable a esta posterior versión.



Código:
 
Format                           : AVI
Format/Info                      : Audio Video Interleave
File size                        : 702 MiB
Duration                         : 2h 17mn
Overall bit rate                 : 713 Kbps
Movie name                       : Lolita (1997) - Dominique Swain, Jeremy Irons
Director                         : FHX
Subject                          : Lolita (1997) - Dominique Swain, Jeremy Irons
Writing application              : Nandub v1.0rc2
Writing library                  : Nandub build 1853/release
Copyright                        : Trimark
Comment                          : Divx 5.0.2

Video
ID                               : 0
Format                           : MPEG-4 Visual
Format settings, BVOP            : 1
Format settings, QPel            : No
Format settings, GMC             : 2 warppoints
Format settings, Matrix          : Default (H.263)
Muxing mode                      : Packed bitstream
Codec ID                         : DX50
Codec ID/Hint                    : DivX 5
Duration                         : 2h 17mn
Bit rate                         : 544 Kbps
Width                            : 640 pixels
Height                           : 352 pixels
Display aspect ratio             : 16:9
Frame rate                       : 23.976 fps
Color space                      : YUV
Chroma subsampling               : 4:2:0
Bit depth                        : 8 bits
Scan type                        : Progressive
Compression mode                 : Lossy
Bits/(Pixel*Frame)               : 0.101
Stream size                      : 535 MiB (76%)
Writing library                  : DivX 5.0.2 (UTC 2002-05-16)

Audio
ID                               : 1
Format                           : MPEG Audio
Format version                   : Version 1
Format profile                   : Layer 3
Codec ID                         : 55
Codec ID/Hint                    : MP3
Duration                         : 2h 17mn
Bit rate mode                    : Constant
Bit rate                         : 160 Kbps
Channel(s)                       : 2 channels
Sampling rate                    : 48.0 KHz
Compression mode                 : Lossy
Stream size                      : 158 MiB (22%)
Alignment                        : Split accross interleaves
Interleave, duration             : 42 ms (1.00 video frame)
Interleave, preload duration     : 454 ms


http://c39add53.cash4files.com






Conocida como la primer "gran" obra de Wes Craven, cuenta un acontecimiento que conduce las jóvenes Mari y Phylis a la gran ciudad, donde, queriendo conseguir drogas para divertirse, son raptadas por un trío de maníacos delincuentes. Este grupo las lleva a las afueras de la ciudad donde luego de, lastimarlas, humillarlas, violarlas y finalmente, asesinarlas, piden refugio en una casa que estaba a pocos metros de donde se encontraban, la cual, por más irónico que parezca, es la casa de la familia de una de sus recientes víctimas. Poco a poco los padres van entrando en conciencia de lo que pasó hasta finalmente descubrirlo, lo que los lleva a buscar venganza con cualquier elemento que tengan a mano...



Código:
 








Una pareja cultivan la perversión llamada necrofilia, en virtud de la cual mantienen relaciones sexuales con cadáveres. La crisis se desata cuando ella lo abandona, y él busca consuelo asesinando gatos o prostitutas buscando la excitación que solo podrá encontrar experimentando su propia muerte.
La película fue vilipendiada y prohibida en muchos países por su representación de la necrofilia. Contiene escenas muy grotescamente perturbadoras.



Código:
 
Format                           : AVI
Format/Info                      : Audio Video Interleave
File size                        : 698 MiB
Duration                         : 1h 11mn
Overall bit rate                 : 1 369 Kbps
Writing application              : VirtualDubMod 1.5.10.2 (build 2540/release)
Writing library                  : VirtualDubMod build 2540/release

Video
ID                               : 0
Format                           : MPEG-4 Visual
Format profile                   : Advanced Simple@L5
Format settings, BVOP            : 2
Format settings, QPel            : No
Format settings, GMC             : No warppoints
Format settings, Matrix          : Default (H.263)
Muxing mode                      : Packed bitstream
Codec ID                         : XVID
Codec ID/Hint                    : XviD
Duration                         : 1h 11mn
Bit rate                         : 1 295 Kbps
Width                            : 544 pixels
Height                           : 352 pixels
Display aspect ratio             : 3:2
Frame rate                       : 23.976 fps
Color space                      : YUV
Chroma subsampling               : 4:2:0
Bit depth                        : 8 bits
Scan type                        : Progressive
Compression mode                 : Lossy
Bits/(Pixel*Frame)               : 0.282
Stream size                      : 660 MiB (95%)
Writing library                  : XviD 1.1.0 Beta2 (UTC 2005-04-04)

Audio
ID                               : 1
Format                           : MPEG Audio
Format version                   : Version 2
Format profile                   : Layer 3
Mode                             : Joint stereo
Codec ID                         : 55
Codec ID/Hint                    : MP3
Duration                         : 1h 11mn
Bit rate mode                    : Constant
Bit rate                         : 64.0 Kbps
Channel(s)                       : 2 channels
Sampling rate                    : 22.05 KHz
Compression mode                 : Lossy
Stream size                      : 32.6 MiB (5%)
Alignment                        : Split accross interleaves
Interleave, duration             : 42 ms (1.00 video frame)
Interleave, preload duration     : 500 ms


http://5b69160e.cash4files.com







Durante la segunda guerra mundial, los japoneses ocuparon durante diez años el noroeste de China, allí establecieron un campo de concentración japonés donde numerosos prisioneros chinos fueron brutalmente asesinados durante el proceso de creación de diferentes formas de ataques bacteriológicos. Los hombres que trabajaron en ese proyecto fueron bautizados con el nombre de "Cuerpo bacteriológico 731" quienes investigaron en el campo de guerra química y bacteriológica con el fin de lograr nuevas armas para el frente. Esta película es la historia de todas esas muertes y torturas en nombre de la ciencia.
Película al estilo documental que no fue calificada pero que de seguro hubiese conseguido un NC-17. Criticada por muchos escenas, autopsias reales, un gato que es destrozado por ratas hambrientas, o la de en una cámara de descompresión provoca que los intestinos de un hombre salgan por su ano.



Código:
 
Format                           : AVI
Format/Info                      : Audio Video Interleave
File size                        : 733 MiB
Duration                         : 1h 43mn
Overall bit rate                 : 986 Kbps
Writing library                  : VirtualDub build 12667/release

Video
ID                               : 0
Format                           : MPEG-4 Visual
Codec ID                         : DIV3
Codec ID/Hint                    : DivX 3 Low
Duration                         : 1h 43mn
Bit rate                         : 915 Kbps
Width                            : 640 pixels
Height                           : 352 pixels
Display aspect ratio             : 16:9
Frame rate                       : 29.970 fps
Color space                      : YUV
Chroma subsampling               : 4:2:0
Bit depth                        : 8 bits
Compression mode                 : Lossy
Bits/(Pixel*Frame)               : 0.136
Stream size                      : 681 MiB (93%)

Audio
ID                               : 1
Format                           : WMA
Format version                   : Version 2
Codec ID                         : 161
Codec ID/Info                    : Windows Media Audio
Duration                         : 1h 43mn
Bit rate                         : 64.1 Kbps
Channel(s)                       : 2 channels
Sampling rate                    : 44.1 KHz
Bit depth                        : 16 bits
Stream size                      : 47.7 MiB (7%)
Interleave, duration             : 500 ms (14.98 video frames)
Interleave, preload duration     : 464 ms


http://dbb73d4a.cash4files.com








Un día de vacaciones en la vida de una pandilla de adolescentes de Nueva York que mata el tiempo consumiendo drogas y practicando el sexo sin límites y con ninguna responsabilidad. La historia, cercana a un documental, nos muestra también algunas consecuencias de esta manera de vivir el placer como el VIH/SIDA y el abuso sexual
Fue lanzado sin calificación para evitar el estigma de una clasificación NC-17 Como un amortiguador contra el furor, Miramax (propiedad de Disney en el momento) creó una nueva entidad, Shining Excalibur Films, para liberar la proyección.



Código:
 
Format                           : AVI
Format/Info                      : Audio Video Interleave
File size                        : 702 MiB
Duration                         : 1h 31mn
Overall bit rate                 : 1 073 Kbps
Writing application              : VirtualDubMod 1.5.4.1 (build 2178/release)
Writing library                  : VirtualDubMod build 2178/release

Video
ID                               : 0
Format                           : MPEG-4 Visual
Format profile                   : Advanced Simple@L5
Format settings, BVOP            : 1
Format settings, QPel            : No
Format settings, GMC             : No warppoints
Format settings, Matrix          : Custom
Codec ID                         : XVID
Codec ID/Hint                    : XviD
Duration                         : 1h 31mn
Bit rate                         : 940 Kbps
Width                            : 528 pixels
Height                           : 288 pixels
Display aspect ratio             : 16:9
Frame rate                       : 23.976 fps
Color space                      : YUV
Chroma subsampling               : 4:2:0
Bit depth                        : 8 bits
Scan type                        : Progressive
Compression mode                 : Lossy
Bits/(Pixel*Frame)               : 0.258
Stream size                      : 614 MiB (88%)
Writing library                  : XviD 1.0.3 (UTC 2004-12-20)

Audio
ID                               : 1
Format                           : MPEG Audio
Format version                   : Version 1
Format profile                   : Layer 3
Mode                             : Dual mono
Codec ID                         : 55
Codec ID/Hint                    : MP3
Duration                         : 1h 31mn
Bit rate mode                    : Variable
Bit rate                         : 121 Kbps
Nominal bit rate                 : 128 Kbps
Channel(s)                       : 2 channels
Sampling rate                    : 48.0 KHz
Compression mode                 : Lossy
Stream size                      : 78.9 MiB (11%)
Alignment                        : Aligned on interleaves
Interleave, duration             : 24 ms (0.58 video frame)
Interleave, preload duration     : 528 ms
Writing library                  : LAME3.96r
Encoding settings                : -m d -V 4 -q 3 -lowpass 17.5 --abr 128
Language                         : English


http://18437aa2.cash4files.com






La película narra al inicio la búsqueda emprendida por dos hombres, Marcus (Vincent Cassel) y Pierre (Albert Dupontel), quienes desean vengar la violación de Alex (Mónica Bellucci), novia de Marcus y ex novia de Pierre. La historia transcurre en París, en el lapso de un día, y consta de trece secciones de diferente duración. Las primeras escenas se caracterizan por mostrar muchas imágenes en rápida sucesión y movimientos caóticos de cámara, pero luego van haciéndose cada vez más pausadas.
"Porque el tiempo lo destruye todo. Porque algunos actos son irreparables. Porque el hombre es un animal. Porque el deseo de venganza es un impulso natural. Porque la mayoría de los crímenes quedan sin castigo. Porque la pérdida del amado destruye como un rayo. Porque el amor es el origen de la vida. Porque toda la historia se escribe con esperma y sangre. Porque en un mundo bueno. Porque las premoniciones no modifican el curso de los acontecimientos. Porque el tiempo lo revela todo. Lo mejor y lo peor."



Código:
 
Format                           : AVI
Format/Info                      : Audio Video Interleave
File size                        : 1.20 GiB
Duration                         : 1h 33mn
Overall bit rate                 : 1 836 Kbps
Writing application              : VirtualDubMod 1.5.10.2 (build 2540/release)
Writing library                  : VirtualDubMod build 2540/release

Video
ID                               : 0
Format                           : MPEG-4 Visual
Format profile                   : Advanced Simple@L5
Format settings, BVOP            : 1
Format settings, QPel            : No
Format settings, GMC             : No warppoints
Format settings, Matrix          : Default (MPEG)
Codec ID                         : XVID
Codec ID/Hint                    : XviD
Duration                         : 1h 33mn
Bit rate                         : 1 634 Kbps
Width                            : 892 pixels
Height                           : 384 pixels
Display aspect ratio             : 2.35:1
Frame rate                       : 23.976 fps
Color space                      : YUV
Chroma subsampling               : 4:2:0
Bit depth                        : 8 bits
Scan type                        : Progressive
Compression mode                 : Lossy
Bits/(Pixel*Frame)               : 0.199
Stream size                      : 1.07 GiB (89%)
Writing library                  : XviD 1.2.1 (UTC 2008-12-04)

Audio
ID                               : 1
Format                           : AC-3
Format/Info                      : Audio Coding 3
Mode extension                   : CM (complete main)
Codec ID                         : 2000
Duration                         : 1h 33mn
Bit rate mode                    : Constant
Bit rate                         : 192 Kbps
Channel(s)                       : 2 channels
Channel positions                : Front: L R
Sampling rate                    : 48.0 KHz
Bit depth                        : 16 bits
Compression mode                 : Lossy
Delay relative to video          : 192ms
Stream size                      : 129 MiB (10%)
Alignment                        : Split accross interleaves
Interleave, duration             : 42 ms (1.00 video frame)
Interleave, preload duration     : 500 ms


http://ed6974f3.cash4files.com






En una decisión realmente extraña, la Iglesia Católica oficialmente reconoció la posesión demoniaca de una joven estudiante americana de 19 años. Esta es la historia... Emily Rose deja el protegido ambiente de su hogar rural para ir a la universidad sin la menor sospecha de lo que le espera. Una noche, sola en su dormitorio, sufre la primera "alucinación" aterradora, así como una pérdida de conocimiento. Puesto que los ataques son cada vez más frecuentes e intensos, Emily, católica devota, decide someterse a un exorcismo dirigido por el cura de su parroquia, el padre Richard Moore. Al morir la joven durante el aterrador exorcismo, acusan al sacerdote de homicidio negligente. Erin Bruner, una sobresaliente abogada defensora, acepta de mala gana representar al Padre Moore a cambio de la seguridad de un contrato de sociedad con su bufete de abogados. A medida que el juicio avanza, el cinismo y ateísmo de Erin se tambalean debido a la fe inquebrantable del Padre Moore y a los hechos, espeluznantes e inexplicables, que rodean el caso...



Código:
 
Format                           : AVI
Format/Info                      : Audio Video Interleave
File size                        : 700 MiB
Duration                         : 1h 59mn
Overall bit rate                 : 819 Kbps
Writing application              : VirtualDubMod 1.5.4.1 (build 2178/release)
Writing library                  : VirtualDubMod build 2178/release

Video
ID                               : 0
Format                           : MPEG-4 Visual
Format profile                   : Advanced Simple@L5
Format settings, BVOP            : 1
Format settings, QPel            : No
Format settings, GMC             : No warppoints
Format settings, Matrix          : Custom
Codec ID                         : XVID
Codec ID/Hint                    : XviD
Duration                         : 1h 59mn
Bit rate                         : 691 Kbps
Width                            : 720 pixels
Height                           : 304 pixels
Display aspect ratio             : 2.35:1
Frame rate                       : 23.976 fps
Color space                      : YUV
Chroma subsampling               : 4:2:0
Bit depth                        : 8 bits
Scan type                        : Progressive
Compression mode                 : Lossy
Bits/(Pixel*Frame)               : 0.132
Stream size                      : 590 MiB (84%)
Writing library                  : XviD 1.2.0.dev47 (UTC 2006-11-01)

Audio
ID                               : 1
Format                           : MPEG Audio
Format version                   : Version 1
Format profile                   : Layer 3
Mode                             : Joint stereo
Mode extension                   : MS Stereo
Codec ID                         : 55
Codec ID/Hint                    : MP3
Duration                         : 1h 59mn
Bit rate mode                    : Variable
Bit rate                         : 116 Kbps
Nominal bit rate                 : 128 Kbps
Channel(s)                       : 2 channels
Sampling rate                    : 48.0 KHz
Compression mode                 : Lossy
Stream size                      : 99.1 MiB (14%)
Alignment                        : Aligned on interleaves
Interleave, duration             : 24 ms (0.58 video frame)
Interleave, preload duration     : 158 ms
Writing library                  : LAME3.97 
Encoding settings                : -m j -V 4 -q 2 -lowpass 17 --abr 128
Language                         : Spanish


http://4e317e5c.cash4files.com






Los hermanos McPherson se encuentran reunidos en la casa de su madre en Lake County, dispuestos a celebrar el Día de Acción de Gracias. En mitad del festejo se corta la luz y los hermanos salen a revisar los fusibles - mientras que Tommy, el menor de ellos, registra todo en su videocámara hogareña -. Pero al llegar al lugar, se topan con lo que parece ser el aterrizaje de un OVNI, y divisan a los alienígenas realizando experimentos con ganado de la zona. El problema es que los extraterrestres han visto a los McPherson, y ahora empiezan a seguirlos. Los muchachos, presa del pánico, regresan a la casa y se preparan para huir de la misma, pero los motores de los vehículos están fundidos. Y mientras tanto, extraños ruidos proceden del primer piso... Una señal de que los extraterrestres han irrumpido en la casa y vienen a por ellos.



Código:
 
Format                           : AVI
Format/Info                      : Audio Video Interleave
File size                        : 508 MiB
Duration                         : 1h 31mn
Overall bit rate                 : 773 Kbps
Writing library                  : VirtualDub build 16297/release

Video
ID                               : 0
Format                           : MPEG-4 Visual
Format settings, BVOP            : No
Format settings, QPel            : No
Format settings, GMC             : No warppoints
Format settings, Matrix          : Default (H.263)
Codec ID                         : DX50
Codec ID/Hint                    : DivX 5
Duration                         : 1h 31mn
Bit rate                         : 700 Kbps
Width                            : 384 pixels
Height                           : 288 pixels
Display aspect ratio             : 4:3
Frame rate                       : 25.000 fps
Color space                      : YUV
Chroma subsampling               : 4:2:0
Bit depth                        : 8 bits
Scan type                        : Interlaced
Scan order                       : Top Field First
Compression mode                 : Lossy
Bits/(Pixel*Frame)               : 0.253
Stream size                      : 460 MiB (91%)
Writing library                  : DivX 5.1.1 (Maupiti) (UTC 2003-11-19)

Audio
ID                               : 1
Format                           : WMA
Format version                   : Version 2
Codec ID                         : 161
Codec ID/Info                    : Windows Media Audio
Duration                         : 1h 31mn
Bit rate                         : 64.1 Kbps
Channel(s)                       : 2 channels
Sampling rate                    : 44.1 KHz
Bit depth                        : 16 bits
Stream size                      : 42.2 MiB (8%)
Interleave, duration             : 46 ms (1.16 video frame)
Interleave, preload duration     : 510 ms


http://c1f5b517.cash4files.com






Basada en un suceso real. El 14 de Noviembre de 1974 en Long Island, Nueva York, la policía recibió una escalofriante llamada telefónica que los condujo a una espantosa escena de un crimen en una residencia en Amityville, Long Island. Una familia había sidoa sesinada en sus propias camas. En los siguientes días, Ronald Defeo confesó que él mismo había disparado a sus padres mientras dormían, culpando a unas voces que le decían que debía matarlos. Un año después, George y Kathy Lutz y sus tres hijos se mudan a la misma casa, creyendo que se trata del hogar de sus sueños. Pero poco después de haberse mudado, extrañas situaciones empiezan a suceder, mientras George comienza a ser atormentado por las voces que existen en la casa...



Código:
 
Format                           : AVI
Format/Info                      : Audio Video Interleave
File size                        : 700 MiB
Duration                         : 1h 25mn
Overall bit rate                 : 1 143 Kbps
Writing application              : VirtualDubMod 1.5.10.2 (build 2540/release)
Writing library                  : VirtualDubMod build 2540/release

Video
ID                               : 0
Format                           : MPEG-4 Visual
Format profile                   : Simple@L3
Format settings, BVOP            : 2
Format settings, QPel            : No
Format settings, GMC             : No warppoints
Format settings, Matrix          : Default (H.263)
Muxing mode                      : Packed bitstream
Codec ID                         : XVID
Codec ID/Hint                    : XviD
Duration                         : 1h 25mn
Bit rate                         : 1 004 Kbps
Width                            : 640 pixels
Height                           : 272 pixels
Display aspect ratio             : 2.35:1
Frame rate                       : 25.000 fps
Color space                      : YUV
Chroma subsampling               : 4:2:0
Bit depth                        : 8 bits
Scan type                        : Progressive
Compression mode                 : Lossy
Bits/(Pixel*Frame)               : 0.231
Stream size                      : 615 MiB (88%)
Writing library                  : XviD 1.0.3 (UTC 2004-12-20)

Audio
ID                               : 1
Format                           : MPEG Audio
Format version                   : Version 1
Format profile                   : Layer 3
Mode                             : Joint stereo
Mode extension                   : MS Stereo
Codec ID                         : 55
Codec ID/Hint                    : MP3
Duration                         : 1h 25mn
Bit rate mode                    : Variable
Bit rate                         : 128 Kbps
Channel(s)                       : 2 channels
Sampling rate                    : 48.0 KHz
Compression mode                 : Lossy
Delay relative to video          : 984ms
Stream size                      : 77.0 MiB (11%)
Alignment                        : Split accross interleaves
Interleave, duration             : 24 ms (0.60 video frame)
Interleave, preload duration     : 1541 ms
Writing library                  : LAME3.90.
Encoding settings                : -m j -V 4 -q 2 -lowpass 17.6 --abr 128


http://8483c396.cash4files.com







El 21 de octubre de 1994, Heather Donahue, Joshua Leonard y Michael Williams entraron en un bosque de Maryland para rodar un documental sobre una leyenda local, "La bruja de Blair". No se volvió a saber de ellos. Un año después, la cámara con la que rodaron fue encontrada, mostrando los terroríficos eventos que dieron lugar a su desaparición.



Código:
 
Format                           : AVI
Format/Info                      : Audio Video Interleave
File size                        : 700 MiB
Duration                         : 1h 20mn
Overall bit rate                 : 1 209 Kbps
Writing application              : VirtualDubMod 1.5.4.1 (build 2178/release)
Writing library                  : VirtualDubMod build 2178/release

Video
ID                               : 0
Format                           : MPEG-4 Visual
Format profile                   : Advanced Simple@L5
Format settings, BVOP            : 1
Format settings, QPel            : No
Format settings, GMC             : No warppoints
Format settings, Matrix          : Custom
Codec ID                         : XVID
Codec ID/Hint                    : XviD
Duration                         : 1h 20mn
Bit rate                         : 1 080 Kbps
Width                            : 400 pixels
Height                           : 304 pixels
Display aspect ratio             : 4:3
Frame rate                       : 23.976 fps
Color space                      : YUV
Chroma subsampling               : 4:2:0
Bit depth                        : 8 bits
Scan type                        : Progressive
Compression mode                 : Lossy
Bits/(Pixel*Frame)               : 0.370
Stream size                      : 625 MiB (89%)
Writing library                  : XviD 1.2.0.dev47 (UTC 2006-11-01)

Audio
ID                               : 1
Format                           : MPEG Audio
Format version                   : Version 1
Format profile                   : Layer 3
Mode                             : Joint stereo
Mode extension                   : MS Stereo
Codec ID                         : 55
Codec ID/Hint                    : MP3
Duration                         : 1h 20mn
Bit rate mode                    : Variable
Bit rate                         : 117 Kbps
Nominal bit rate                 : 128 Kbps
Channel(s)                       : 2 channels
Sampling rate                    : 48.0 KHz
Compression mode                 : Lossy
Stream size                      : 67.7 MiB (10%)
Alignment                        : Aligned on interleaves
Interleave, duration             : 24 ms (0.58 video frame)
Interleave, preload duration     : 157 ms
Writing library                  : LAME3.97 
Encoding settings                : -m j -V 4 -q 2 -lowpass 17 --abr 128
Language                         : English


http://6e7ae03a.cash4files.com






A comienzos de los años noventa, el joven e idealista Christopher McCandless (Emile Hirsch), abandona su vida en la civilización, se cambia de nombre por el de Alexander Supertramp, deja sus posesiones y dona sus 24.000 dólares de ahorros a la caridad para poner rumbo a la salvaje Alaska, donde espera encontrarse con la verdadera naturaleza y con la verdad de su existencia. Basada en el best-seller de Jon Krakauer, que con su libro -basado en las notas del diario que el joven escribió en sus viajes- inmortalizó la historia de McCandless.



Código:
 
Format                           : AVI
Format/Info                      : Audio Video Interleave
File size                        : 800 MiB
Duration                         : 2h 22mn
Overall bit rate                 : 788 Kbps
Writing application              : VirtualDubMod 1.5.10.1 (build 2366/release)
Writing library                  : VirtualDubMod build 2366/release

Video
ID                               : 0
Format                           : MPEG-4 Visual
Format profile                   : Advanced Simple@L5
Format settings, BVOP            : 2
Format settings, QPel            : No
Format settings, GMC             : No warppoints
Format settings, Matrix          : Default (H.263)
Codec ID                         : DX50
Codec ID/Hint                    : DivX 5
Duration                         : 2h 22mn
Bit rate                         : 666 Kbps
Width                            : 616 pixels
Height                           : 250 pixels
Display aspect ratio             : 2.464
Frame rate                       : 25.000 fps
Color space                      : YUV
Chroma subsampling               : 4:2:0
Bit depth                        : 8 bits
Scan type                        : Progressive
Compression mode                 : Lossy
Bits/(Pixel*Frame)               : 0.173
Stream size                      : 677 MiB (85%)
Writing library                  : XviD 1.0.3 (UTC 2004-12-20)

Audio
ID                               : 1
Format                           : MPEG Audio
Format version                   : Version 1
Format profile                   : Layer 3
Codec ID                         : 55
Codec ID/Hint                    : MP3
Duration                         : 2h 22mn
Bit rate mode                    : Constant
Bit rate                         : 112 Kbps
Channel(s)                       : 2 channels
Sampling rate                    : 48.0 KHz
Compression mode                 : Lossy
Stream size                      : 114 MiB (14%)
Alignment                        : Aligned on interleaves
Interleave, duration             : 40 ms (1.00 video frame)
Interleave, preload duration     : 504 ms


http://5ab5636f.cash4files.com



Mas Peliculas

1000 Peliculas Eroticas [Actualizacion Diaria]

Megapost de Peliculas de Estreno 2012 [Actualizacion Diaria]

Peliculas Estreno en Audio Latino por Freakshare y Otros (Se actualiza diario)


Money Talks - Coleccion Imperdible !!!

Peliculas para Celulares [3gp][Mp4][Latino]

compilacion de Orgasmos Reales (Recomendado)







Descargar Las mejores peliculas Polemicas Pelicula Gratis


13-oct-2010
adjun_26
Black User
Re: Las mejores peliculas Polemicas
descargando saludos
21-oct-2010
mandrilpe
Premium User
Re: Las mejores peliculas Polemicas
Resubo algunos links caidos ..........
21-oct-2010
chentefox
Black User
Re: Las mejores peliculas Polemicas
esta en ingles ubieras dicho.. antes de bajarlo
02-nov-2010
mandrilpe
Premium User
Re: Las mejores peliculas Polemicas
Iniciado por chentefox
esta en ingles ubieras dicho.. antes de bajarlo
la mayotia viene con sus subtitulos solo reproducelo en el classic.
03-nov-2010
kadoari
White User
Re: Las mejores peliculas Polemicas
Gracias por el aporte....
12-nov-2010
mandrilpe
Premium User
Re: Las mejores peliculas Polemicas
resubo links caidos y recalco que todos son en su idioma original con sus respectivos subtitulos en español.
18-nov-2010
mandouno
New User
Re: Las mejores peliculas Polemicas
hola, es mi primera descarga, te agradezco se ve chida la peli, gracias
18-nov-2010
antarmax
White User
Re: Las mejores peliculas Polemicas
Muchas gracias..saludos
19-nov-2010
mandouno
New User
Re: Las mejores peliculas Polemicas
que onda, descargando segunda vez, gracias excelente aporte
24-nov-2010
mandouno
New User
Re: Las mejores peliculas Polemicas
descargando grax. estan chidas
24-dic-2010
mandrilpe
Premium User
Re: Las mejores peliculas Polemicas
Resubo peliculas...........
28-dic-2010
Sivle
Black User
Re: Las mejores peliculas Polemicas
oye esta rebuena esta recopilacion y mira que muchas de esas no habia mirado te pasaste con tu aporte 1000 gracias cumpa.
29-dic-2010
mandrilpe
Premium User
Re: Las mejores peliculas Polemicas
Iniciado por Sivle
oye esta rebuena esta recopilacion y mira que muchas de esas no habia mirado te pasaste con tu aporte 1000 gracias cumpa.
saludos y Gracias.
30-dic-2010
mandrilpe
Premium User
Re: Las mejores peliculas Polemicas
resubiendo peliculas..............
31-dic-2010
Re: Las mejores peliculas Polemicas
no puedo con la bendita clave?? ayuda por favor
06-ene-2011
dieguin32
Platinum User
Re: Las mejores peliculas Polemicas
muy buen post
07-ene-2011
mandrilpe
Premium User
Re: Las mejores peliculas Polemicas
Iniciado por dieguin32
muy buen post
gracias man........
07-ene-2011
paulie-saif
King User
Re: Las mejores peliculas Polemicas
bajando haber que pasa
08-ene-2011
geronimush
White User
Re: Las mejores peliculas Polemicas
Muuuuuuuuuuchas gracias!!!!!!!!!!
09-ene-2011
mandrilpe
Premium User
Re: Las mejores peliculas Polemicas
Iniciado por geronimush
Muuuuuuuuuuchas gracias!!!!!!!!!!
Gracias a ustedes por sus comentarios es todo lo que pido.
09-ene-2011
juan1021
White User
Re: Las mejores peliculas Polemicas
aqui descargando este exelente aporte todas se ven exelentes gracias
10-ene-2011
hanner78
Gold User
Re: Las mejores peliculas Polemicas
gracias por el aporte,
10-ene-2011
elgronda
White User
Re: Las mejores peliculas Polemicas
EXCELENTE aporte mi amigo, son puras joyas estas movies...por supuesto para gente conocedora, me faltan palabras para agradecerte no he descargado ninguna pero las bajare y tambien para preguntar si de casualidad tendras la movie THE GOD,S LONELY MAN.es una de las joyas de Francis von zerneck.
INFINITAS GRACIAS.
10-ene-2011
humbertox
Black User
Re: Las mejores peliculas Polemicas
gracias
11-ene-2011
nachita3
White User
Re: Las mejores peliculas Polemicas
thanks
11-ene-2011
windir
Platinum User
Re: Las mejores peliculas Polemicas
exelente aporta compadre se agradece
12-ene-2011
mandrilpe
Premium User
Re: Las mejores peliculas Polemicas
Iniciado por elgronda
EXCELENTE aporte mi amigo, son puras joyas estas movies...por supuesto para gente conocedora, me faltan palabras para agradecerte no he descargado ninguna pero las bajare y tambien para preguntar si de casualidad tendras la movie THE GOD,S LONELY MAN.es una de las joyas de Francis von zerneck.
INFINITAS GRACIAS.
Nunca e oido de esa pelicula pero me pondre a buscarla para subirla ahora la pongo en cola
saludos y gracias por tus palabras.
Cola........
1.-THE GOD,S LONELY MAN
13-ene-2011
mandrilpe
Premium User
Re: Las mejores peliculas Polemicas
resubo links..........
14-ene-2011
Junior726
White User
Re: Las mejores peliculas Polemicas
Descargando compadrito thank you very much.


joejunior05@hotmail.com
Imágenes Adjuntas
Tipo de Archivo: jpg thump_2694275dbz-movie-08-estal.jpg (13.5 KB (Kilobytes), 8 visitas)

Necesitás estar Registrado para dejar comentarios en Las mejores peliculas Polemicas

Información del Post

  • Puntos Puntos: 0 |
  • Visitas Visitas: 17087 |
  • Autor Publicado por: mandrilpe |
  • Categoría: Películas Gratis