Cars Toon Disparates de Mate 2010BluRayRip 720P XviD Español Latino 5.1


Descargar Cars Toon Disparates de Mate 2010BluRayRip 720P XviD Español Latino 5.1 Película Gratis 1 link por Mega y Mediafire



Argentina Warez » Descargas Gratis » Películas Gratis Cars Toon Disparates de Mate 2010BluRayRip 720P XviD Español Latino 5.1
24-oct-2010
cadagoto
Premium User
Cars Toon Disparates de Mate 2010BluRayRip 720P XviD Español Latino 5.1



Cars Toon Disparates de Mate 2010BluRayRip 720P XviD Español Latino 5.1







Título: Cars Toon: Maters Tall Tales
Título España: Cars Toon: Los Cuentos de Mate
Año: 2008 – 2010
Pais: USA
Producción: Pixar Animation Studios
Cast: Keith Ferguson, Larry The Cable Guy
Lanzamiento DVD (España): 24 Noviembre 2010

Cars Toon: Maters Tall Tales (2010)
BRRip 720p | AC3 5.1 & DTS | 1.19 GB | Audios: Español Latino, Inglés | 2010 | Animación |

Código:
General
Complete name                    : Cars.Toon.Maters.Tall.Tales.2008.720p.BRRip.LATiNO.ENG.avi
Format                           : AVI
Format/Info                      : Audio Video Interleave
File size                        : 1.19 GiB
Duration                         : 35mn 37s
Overall bit rate                 : 4 775 Kbps
Movie name                       : Cars.Toon.Maters.Tall.Tales.2008.720p.BRRip.LATiNO.ENG

Video
ID                               : 0
Format                           : MPEG-4 Visual
Format profile                   : Advanced Simple@L5
Format settings, BVOP            : Yes
Format settings, QPel            : No
Format settings, GMC             : No warppoints
Format settings, Matrix          : Default (H.263)
Codec ID                         : XVID
Codec ID/Hint                    : XviD
Duration                         : 35mn 37s
Bit rate                         : 2 868 Kbps
Width                            : 1 280 pixels
Height                           : 720 pixels
Display aspect ratio             : 16:9
Frame rate                       : 23.976 fps
Color space                      : YUV
Chroma subsampling               : 4:2:0
Bit depth                        : 8 bits
Scan type                        : Progressive
Bits/(Pixel*Frame)               : 0.130
Stream size                      : 731 MiB (60%)
Writing library                  : XviD 1.2.1 (UTC 2008-12-04)

Audio #1
ID                               : 1
Format                           : AC-3
Format/Info                      : Audio Coding 3
Mode extension                   : CM (complete main)
Codec ID                         : 2000
Duration                         : 35mn 37s
Bit rate mode                    : Constant
Bit rate                         : 384 Kbps
Channel(s)                       : 6 channels
Channel positions                : Front: L C R, Side: L R, LFE
Sampling rate                    : 48.0 KHz
Bit depth                        : 16 bits
Video delay                      : 24ms
Stream size                      : 97.8 MiB (8%)
Alignment                        : Split accross interleaves
Interleave, duration             : 42 ms (1.00 video frame)
Interleave, preload duration     : 500 ms

Audio #2
ID                               : 2
Format                           : DTS
Format/Info                      : Digital Theater Systems
Format profile                   : ES
Codec ID                         : 2001
Codec ID/Info                    : Digital Theater Systems
Duration                         : 35mn 37s
Bit rate mode                    : Constant
Bit rate                         : 1 510 Kbps
Channel(s)                       : 6 channels
Channel positions                : Front: L C R, Side: L R, LFE
Sampling rate                    : 48.0 KHz
Bit depth                        : 24 bits
Stream size                      : 384 MiB (32%)
Alignment                        : Split accross interleaves
Interleave, duration             : 42 ms (1.00 video frame)
Interleave, preload duration     : 500 ms





Cars Toon: Los Cuentos de Mate es una colección de cortos creados por Disney/Pixar basados en el entrañable camión Mate, de la película de animación Cars. Los personajes de una de las películas más aclamadas de los últimos años, se dan cita en nueve divertidos cortos en los que Mate asume el papel protagonista. El camión se verá envuelto en las más disparatadas situaciones: corridas de toros, conciertos de rock, carreras en Tokio ¡e incluso ovnis! Además, la colección incluye dos nuevos cortos nunca vistos de Mate: Mate en la luna y Detective Mate.















Spoiler



!Links De 450 MB ! Si Hay Mirror , Son Intercambiables !
Si Te Encuentras Con Dlc En Por Lo Resubi Y No Quiero Hacerlo + : )



Cars.Toon.Maters.Lat.720.Cadagoto.avi.part1.rar download for free on file share letitbit.net
Cars.Toon.Maters.Lat.720.Cadagoto.avi.part2.rar download for free on file share letitbit.net
Cars.Toon.Maters.Lat.720.Cadagoto.avi.part3.rar download for free on file share letitbit.net



Free File Hosting, Online Storage &amp File Upload with FileServe
Free File Hosting, Online Storage &amp File Upload with FileServe
Free File Hosting, Online Storage &amp File Upload with FileServe






cadagoto

La Contraseña Es Toda con minusculas !





!Quieres Q Resuba Un Aporte ?...Enviame Un Mensaje Privado Con El Nombre Del Tema y La Direccion http:// resube , Gracias por Coolaborar !













En Subir El Aporte Y Armar El Post Toma Buen Tiempo ...............Agradecer No Cuesta Nada !



Descargar Cars Toon Disparates de Mate 2010BluRayRip 720P XviD Español Latino 5.1 Pelicula Gratis



Necesitás estar Registrado para dejar comentarios en Cars Toon Disparates de Mate 2010BluRayRip 720P XviD Español Latino 5.1

Información del Post