Pasajero 57 [HDrip][Castellano][Accion][1993]


Descargar Pasajero 57 [HDrip][Castellano][Accion][1993] Película Gratis 1 link por Mega y Mediafire



Argentina Warez » Descargas Gratis » Películas Gratis Pasajero 57 [HDrip][Castellano][Accion][1993]
28-feb-2011
empresayer
Silver User
Pasajero 57 [HDrip][Castellano][Accion][1993]



Genero: Acción | Terrorismo. Aviones

Idioma: Castellano

Sinopsis:

Charles Rane está considerado uno de los más peligrosos terroristas del mundo. Custodiado por agentes federales, Rane es trasladado a Los Angeles en avión para ser juzgado por los crímenes cometidos. A pesar de las medidas de seguridad, Rane consigue liberarse y se hace con el mando del avión, pero no cuenta con que en el mismo vuelo, sentado en el asiento número 57, viaja John Cutter, un especialista en lucha antiterrorista.

Titulo original: Passenger 57
Año: 1993
Duracion: 85 min.
Pais: Estados Unidos
Director: Kevin Hooks
Guion: Dan Gordon & David Loughery (Historia: Stewart Raffill & Dan Gordon)
Musica: Stanley Clarke
Fotografia: Mark Irwin
Reparto: Wesley Snipes, Bruce Payne, Tom Sizemore, Elizabeth Hurley, Michael Horse, Alex Datcher, Bruce Greenwood, Robert Hooks
Productora: Warner Bros


Código:
General
Complete name                    : Pasajero_57_EmpresaYER.avi
Format                           : AVI
Format/Info                      : Audio Video Interleave
File size                        : 1.67 GiB
Duration                         : 1h 20mn
Overall bit rate                 : 2 971 Kbps

Video
ID                               : 0
Format                           : MPEG-4 Visual
Format profile                   : Simple@L3
Format settings, BVOP            : No
Format settings, QPel            : No
Format settings, GMC             : No warppoints
Format settings, Matrix          : Default (H.263)
Codec ID                         : XVID
Codec ID/Hint                    : XviD
Duration                         : 1h 20mn
Bit rate                         : 2 576 Kbps
Width                            : 720 pixels
Height                           : 320 pixels
Display aspect ratio             : 2.25:1
Frame rate                       : 25.000 fps
Color space                      : YUV
Chroma subsampling               : 4:2:0
Bit depth                        : 8 bits
Scan type                        : Progressive
Compression mode                 : Lossy
Bits/(Pixel*Frame)               : 0.447
Stream size                      : 1.45 GiB (87%)
Writing library                  : XviD 1.1.2 (UTC 2006-11-01)

Audio
ID                               : 1
Format                           : AC-3
Format/Info                      : Audio Coding 3
Mode extension                   : CM (complete main)
Codec ID                         : 2000
Duration                         : 1h 20mn
Bit rate mode                    : Constant
Bit rate                         : 384 Kbps
Channel(s)                       : 6 channels
Channel positions                : Front: L C R, Side: L R, LFE
Sampling rate                    : 48.0 KHz
Bit depth                        : 16 bits
Compression mode                 : Lossy
Stream size                      : 221 MiB (13%)
Alignment                        : Aligned on interleaves
Interleave, duration             : 32 ms (0.80 video frame)
Interleave, preload duration     : 32 ms





Código:
http://www.fileserve.com/file/XHSayCH

Descargar Pasajero 57 [HDrip][Castellano][Accion][1993] Pelicula Gratis



Necesitás estar Registrado para dejar comentarios en la descarga Pasajero 57 [HDrip][Castellano][Accion][1993]

Información del Post

  • Puntos Puntos: 0 |
  • Visitas Visitas: 2486 |
  • Autor Publicado por: empresayer |
  • Categoría: Películas Gratis