Amor y Otras Drogas DVDFull Latino


Descargar Amor y Otras Drogas DVDFull Latino Película Gratis 1 link por Mega y Mediafire



Argentina Warez » Descargas Gratis » Películas Gratis Amor y Otras Drogas DVDFull Latino
03-mar-2011
matiasgon
White User
Amor y Otras Drogas DVDFull Latino


Título original: Love and Other Drugs
Título latino: Amor y otras drogas
País: USA
Año: 2010
Duración: 113 min.
Genero: Drama
Productora: 20th Century Fox
Director: Edward Zwick
Guión: Edward Zwick, Charles Randolph & Marshall Herskovitz
Reparto: Jake Gyllenhaal, Anne Hathaway, Oliver Platt, Hank Azaria, Judy Greer, Gabriel Macht, Katheryn Winnick, Jaimie Alexander, Natalie Gold, George Segal, Scott Cohen, Josh Gad, Brenna Roth, Nikki Deloach
Valoración iMDB: 6.6/10


Maggie (Anne Hathaway) es una mujer independiente que no deja que nada ni nadie la ate. Pero conoce a su media naranja Jamie (Jake Gyllenhaal), cuyo implacable e infalible encanto le sirve bien tanto con las mujeres como dentro del despiadado mundo de las ventas farmacéuticas. La evolución que sufre la relación entre Maggie y Jamie coge a ambos por sorpresa, al encontrarse ambos bajo la influencia de la droga final: el amor.

Código:
General
Complete name : G:\LOVE_AND_OTHER_DRUGS\VIDEO_TS\VTS_04_1.VOB
Format : MPEG-PS
File size : 1 024 MiB
Duration : 34mn 29s
Overall bit rate : 4 151 Kbps

Video
ID : 224 (0xE0)
Format : MPEG Video
Format version : Version 2
Format profile : Main@Main
Format settings, BVOP : Yes
Format settings, Matrix : Default
Duration : 34mn 29s
Bit rate mode : Variable
Bit rate : 3 236 Kbps
Width : 720 pixels
Height : 480 pixels
Display aspect ratio : 16:9
Frame rate : 23.976 fps
Standard : NTSC
Color space : YUV
Chroma subsampling : 4:2:0
Bit depth : 8 bits
Scan type : Progressive
Scan order : 2:3 Pulldown
Compression mode : Lossy
Bits/(Pixel*Frame) : 0.391
Stream size : 798 MiB (78%)

Audio #1
ID : 128 (0x80)
Format : AC-3
Format/Info : Audio Coding 3
Mode extension : CM (complete main)
Duration : 34mn 29s
Bit rate mode : Constant
Bit rate : 448 Kbps
Channel(s) : 6 channels
Channel positions : Front: L C R, Side: L R, LFE
Sampling rate : 48.0 KHz
Bit depth : 16 bits
Compression mode : Lossy
Delay relative to video : -49ms
Stream size : 111 MiB (11%)

Audio #2
ID : 129 (0x81)
Format : AC-3
Format/Info : Audio Coding 3
Format profile : Dolby Digital
Mode extension : CM (complete main)
Duration : 34mn 29s
Bit rate mode : Constant
Bit rate : 192 Kbps
Channel(s) : 2 channels
Channel positions : Front: L R
Sampling rate : 48.0 KHz
Bit depth : 16 bits
Compression mode : Lossy
Delay relative to video : -49ms
Stream size : 47.4 MiB (5%)

Audio #3
ID : 130 (0x82)
Format : AC-3
Format/Info : Audio Coding 3
Format profile : Dolby Digital
Mode extension : CM (complete main)
Duration : 34mn 29s
Bit rate mode : Constant
Bit rate : 192 Kbps
Channel(s) : 2 channels
Channel positions : Front: L R
Sampling rate : 48.0 KHz
Bit depth : 16 bits
Compression mode : Lossy
Delay relative to video : -49ms
Stream size : 47.4 MiB (5%)

Text #1
ID : 32 (0x20)
Format : RLE
Format/Info : Run-length encoding

Text #2
ID : 33 (0x21)
Format : RLE
Format/Info : Run-length encoding

Text #3
ID : 34 (0x22)
Format : RLE
Format/Info : Run-length encoding

Text #4
ID : 37 (0x25)
Format : RLE
Format/Info : Run-length encoding

Text #5
ID : 38 (0x26)
Format : RLE
Format/Info : Run-length encoding

Text #6
ID : 39 (0x27)
Format : RLE
Format/Info : Run-length encoding

Actors: Jake Gyllenhaal, Anne Hathaway, Judy Greer, Oliver Platt, Hank Azaria
Directors: Edward Zwick
Writers: Edward Zwick, Charles Randolph, Jamie Reidy, Marshall Herskovitz
Producers: Alexa Faigen, Charles Randolph, Darin Rivetti
Language: English, French, Spanish
Subtitles: English, French, Spanish
Rated: R (Restricted)
Studio: 20th Century Fox
DVD Release Date: March 1, 2011
Run Time: 112 minutes

Encoding Type: Cinemacraft Encoder (6pass)







Código:
LINK INTERCAMBIABLES

http://bitshare.com/?f=rzj6uu9k
http://bitshare.com/?f=fe043peu
http://bitshare.com/?f=3udi1hoz
http://bitshare.com/?f=hawd4739
http://bitshare.com/?f=4j82xq1k
http://bitshare.com/?f=0efnpg0e
http://bitshare.com/?f=7gdxuep8
http://bitshare.com/?f=2wl9z521
http://bitshare.com/?f=96i5j0z8

http://www.fileserve.com/file/YCdbTV9
http://www.fileserve.com/file/UcmFePD
http://www.fileserve.com/file/xdZPNvr
http://www.fileserve.com/file/7tQ2Ebu
http://www.fileserve.com/file/zu58Tsx
http://www.fileserve.com/file/uMMav6j
http://www.fileserve.com/file/7TsXgBj
http://www.fileserve.com/file/p7kG3Nb
http://www.fileserve.com/file/U3sHBR9


Descargar Amor y Otras Drogas DVDFull Latino Pelicula Gratis


03-mar-2011
Rainier74
Premier User
Re: Amor y Otras Drogas DVDFull Latino
Gracias por tu aporte
06-may-2012
beppy
Black User
Re: Amor y Otras Drogas DVDFull Latino
gracias por tu aporte

Necesitás estar Registrado para dejar comentarios en Amor y Otras Drogas DVDFull Latino

Información del Post

  • Puntos Puntos: 0 |
  • Visitas Visitas: 3939 |
  • Autor Publicado por: matiasgon |
  • Categoría: Películas Gratis