Mis Dias Con Gloria [DVDrip][Castellano][Comedia][2010]


Descargar Mis Dias Con Gloria [DVDrip][Castellano][Comedia][2010] Película Gratis 1 link por Mega y Mediafire



Argentina Warez » Descargas Gratis » Películas Gratis Mis Dias Con Gloria [DVDrip][Castellano][Comedia][2010]
24-mar-2011
empresayer
Silver User
Mis Dias Con Gloria [DVDrip][Castellano][Comedia][2010]


Año: 2010
Género: Comedia
Duración: 90 Minutos

Resumen:

Roberto es un asesino a sueldo en conflicto con su profesion y agobiado por deudas de juego. Cada vez le cuesta mas matar y la policia lo esta buscando. Gloria es una actriz de los años `60 que regresa sorpresivamente a su terruño natal, para enfrentar un error de juventud. A partir de un equivoco, donde Gloria confunde a Roberto con un chofer, sus vidas se unen inexorablemente en un viaje contra el reloj y la muerte. La enfermedad incurable de Gloria y la violencia del mundo de Roberto son los escollos que deben superar juntos, convirtiendose el uno para el otro en la tabla de salvacion que les sirva para saldar sus deudas.

Datos Importantes

Calidad del video: DVD RIP
Peso: 700 mb
Idioma del audio: Español Latino

Datos Extras

Capturas Reales!


Código:
 
General 
Complete name                    : 45_EmpresaYER.avi 
Format                           : AVI 
Format/Info                      : Audio Video Interleave 
File size                        : 700 MiB 
Duration                         : 1h 19mn 
Overall bit rate                 : 1 228 Kbps 
Director                         : by retibuyendo 
Writing application              : VirtualDubMod 1.5.10.3 | www.virtualdub-fr.org || (build 2550/release) 
Writing library                  : VirtualDub build 33848/release 
 
Video 
ID                               : 0 
Format                           : MPEG-4 Visual 
Format profile                   : Advanced Simple@L5 
Format settings, BVOP            : 1 
Format settings, QPel            : No 
Format settings, GMC             : No warppoints 
Format settings, Matrix          : Default (H.263) 
Codec ID                         : XVID 
Codec ID/Hint                    : XviD 
Duration                         : 1h 19mn 
Bit rate                         : 1 093 Kbps 
Width                            : 640 pixels 
Height                           : 352 pixels 
Display aspect ratio             : 16:9 
Frame rate                       : 23.976 fps 
Color space                      : YUV 
Chroma subsampling               : 4:2:0 
Bit depth                        : 8 bits 
Scan type                        : Progressive 
Compression mode                 : Lossy 
Bits/(Pixel*Frame)               : 0.202 
Stream size                      : 623 MiB (89%) 
Writing library                  : XviD 57 
 
Audio 
ID                               : 1 
Format                           : MPEG Audio 
Format version                   : Version 1 
Format profile                   : Layer 3 
Mode                             : Joint stereo 
Mode extension                   : MS Stereo 
Codec ID                         : 55 
Codec ID/Hint                    : MP3 
Duration                         : 1h 19mn 
Bit rate mode                    : Variable 
Bit rate                         : 128 Kbps 
Channel(s)                       : 2 channels 
Sampling rate                    : 48.0 KHz 
Compression mode                 : Lossy 
Delay relative to video          : 48ms 
Stream size                      : 69.9 MiB (10%) 
Alignment                        : Split accross interleaves 
Interleave, duration             : 24 ms (0.58 video frame) 
Interleave, preload duration     : 623 ms 
Writing library                  : LAME3.98r 
Encoding settings                : -m j -V 4 -q 2 -lowpass 17 --abr 128



Código:
 
http://www.fileserve.com/file/tmJTvWV

Descargar Mis Dias Con Gloria [DVDrip][Castellano][Comedia][2010] Pelicula Gratis



Necesitás estar Registrado para dejar comentarios en la descarga Mis Dias Con Gloria [DVDrip][Castellano][Comedia][2010]

Información del Post

  • Puntos Puntos: 0 |
  • Visitas Visitas: 173 |
  • Autor Publicado por: empresayer |
  • Categoría: Películas Gratis