50 Primeras Citas 2004 BluRay 1080p Mkv x264 Español(Esp)AC3/Ingles(Us)AC3 Sub Esp Comedia Romantica


Descargar 50 Primeras Citas 2004 BluRay 1080p Mkv x264 Español(Esp)AC3/Ingles(Us)AC3 Sub Esp Comedia Romantica Película Gratis 1 link por Mega y Mediafire



Argentina Warez » Descargas Gratis » Películas Gratis 50 Primeras Citas 2004 BluRay 1080p Mkv x264 Español(Esp)AC3/Ingles(Us)AC3 Sub Esp Comedia Romantica
25-mar-2011
cadagoto
Premium User
50 Primeras Citas 2004 BluRay 1080p Mkv x264 Español(Esp)AC3/Ingles(Us)AC3 Sub Esp Comedia Romantica





50 Primeras Citas 2004 BluRay 1080p Mkv x264 Español(Esp)AC3/Ingles(Us)AC3 Sub Esp Comedia Romantica







TÍTULO ORIGINAL: 50 First Dates
AÑO: 2004
DURACIÓN: 99 min. Trailers/Vídeos
PAÍS: [Estados Unidos]
DIRECTOR: Peter Segal
GUIÓN: George Wing, Lowell Ganz, Babaloo Mandel
MÚSICA: Teddy Castellucci
FOTOGRAFÍA: Jack N. Green
REPARTO: Adam Sandler, Drew Barrymore, Rob Schneider, Sean Astin, Dan Aykroyd, Amy Hill, Lusia Strus, Allen Covert, Blake Clark, Maya Rudolph, Lynn Collins
PRODUCTORA: Columbia Pictures
WEB OFICIAL: 50 First Dates
GÉNERO: Romance. Comedia | Comedia romántica


Código:
General
Complete name :     files/50.First.Dates.Castellano.CadagotoHD.mkv
Format :     Matroska
File size :     4.37 GiB
Duration :     1h 39mn
Overall bit rate :     6 321 Kbps
Encoded date :     UTC 2010-09-15 22:10:25
Writing application :     mkvmerge v4.0.0 ('The Stars were mine') built on Jun 6 2010 16:18:42
Writing library :     libebml v1.0.0 + libmatroska v1.0.0
Cover :     Yes

Video
ID :     1
Format :     AVC
Format/Info :     Advanced Video Codec
Format profile :     High@L4.1
Format settings, CABAC :     Yes
Format settings, ReFrames :     4 frames
Muxing mode :     Container profile=Unknown@4.1
Codec ID :     V_MPEG4/ISO/AVC
Duration :     1h 39mn
Bit rate :     4 781 Kbps
Width :     1 916 pixels
Height :     796 pixels
Display aspect ratio :     2.40:1
Frame rate :     23.976 fps
Color space :     YUV
Chroma subsampling :     4:2:0
Bit depth :     8 bits
Scan type :     Progressive
Bits/(Pixel*Frame) :     0.131
Stream size :     3.22 GiB (74%)
Title :     x264 1916x796 4782 kbps AverageQuantizer=21.230 Ripped by ShivaShanti
Writing library :     x264 core 104 r1713 c276662

Audio #1
ID :     2
Format :     AC-3
Format/Info :     Audio Coding 3
Mode extension :     CM (complete main)
Codec ID :     A_AC3
Duration :     1h 39mn
Bit rate mode :     Constant
Bit rate :     640 Kbps
Channel(s) :     6 channels
Channel positions :     Front: L C R, Side: L R, LFE
Sampling rate :     48.0 KHz
Bit depth :     16 bits
Stream size :     453 MiB (10%)
Title :     English AC3 5.1 640 kbps

Audio #2
ID :     3
Format :     AC-3
Format/Info :     Audio Coding 3
Mode extension :     CM (complete main)
Codec ID :     A_AC3
Duration :     1h 39mn
Bit rate mode :     Constant
Bit rate :     448 Kbps
Channel(s) :     6 channels
Channel positions :     Front: L C R, Side: L R, LFE
Sampling rate :     48.0 KHz
Bit depth :     16 bits
Stream size :     317 MiB (7%)
Title :     Italian AC3 5.1 448 kbps
Language :     Italian

Audio #3
ID :     4
Format :     AC-3
Format/Info :     Audio Coding 3
Mode extension :     CM (complete main)
Codec ID :     A_AC3
Duration :     1h 39mn
Bit rate mode :     Constant
Bit rate :     448 Kbps
Channel(s) :     6 channels
Channel positions :     Front: L C R, Side: L R, LFE
Sampling rate :     48.0 KHz
Bit depth :     16 bits
Stream size :     317 MiB (7%)
Title :     Spanish AC3 5.1 4448 kbps
Language :     Spanish

Text #1
ID :     5
Format :     UTF-8
Codec ID :     S_TEXT/UTF8
Codec ID/Info :     UTF-8 Plain Text
Title :     english

Text #2
ID :     6
Format :     UTF-8
Codec ID :     S_TEXT/UTF8
Codec ID/Info :     UTF-8 Plain Text
Title :     italian
Language :     Italian

Text #3
ID :     7
Format :     UTF-8
Codec ID :     S_TEXT/UTF8
Codec ID/Info :     UTF-8 Plain Text
Title :     spanish
Language :     Spanish

Text #4
ID :     8
Format :     UTF-8
Codec ID :     S_TEXT/UTF8
Codec ID/Info :     UTF-8 Plain Text
Title :     croatian
Language :     Croatian

Text #5
ID :     9
Format :     UTF-8
Codec ID :     S_TEXT/UTF8
Codec ID/Info :     UTF-8 Plain Text
Title :     danish
Language :     Danish

Text #6
ID :     10
Format :     UTF-8
Codec ID :     S_TEXT/UTF8
Codec ID/Info :     UTF-8 Plain Text
Title :     finnish
Language :     Finnish

Text #7
ID :     11
Format :     UTF-8
Codec ID :     S_TEXT/UTF8
Codec ID/Info :     UTF-8 Plain Text
Title :     hungarian
Language :     Hungarian

Text #8
ID :     12
Format :     UTF-8
Codec ID :     S_TEXT/UTF8
Codec ID/Info :     UTF-8 Plain Text
Title :     norwegian
Language :     Norwegian

Text #9
ID :     13
Format :     UTF-8
Codec ID :     S_TEXT/UTF8
Codec ID/Info :     UTF-8 Plain Text
Title :     polish
Language :     Polish

Text #10
ID :     14
Format :     UTF-8
Codec ID :     S_TEXT/UTF8
Codec ID/Info :     UTF-8 Plain Text
Title :     portuguese
Language :     Portuguese

Text #11
ID :     15
Format :     UTF-8
Codec ID :     S_TEXT/UTF8
Codec ID/Info :     UTF-8 Plain Text
Title :     swedish
Language :     Swedish

Text #12
ID :     16
Format :     UTF-8
Codec ID :     S_TEXT/UTF8
Codec ID/Info :     UTF-8 Plain Text
Title :     italian forced
Language :     Italian

Text #13
ID :     17
Format :     UTF-8
Codec ID :     S_TEXT/UTF8
Codec ID/Info :     UTF-8 Plain Text
Title :     spanish forced
Language :     Spanish
SINOPSIS

Adam Sandler es un biólogo marino que siempre inventa excusas para evitar compromisos con las chicas con las que sale. Cuando un día conoce a la chica de sus sueños, Drew Barrymore, aparece un "pequeño inconveniente": ella tiene el problema de que cada mañana se levanta sin recordar nada del día anterior.












¡Importante! Para descargar de Linksave deben tener abierto Jdownloader, y debe tener instalado el complemento Click 'n Load.





Fileserve Links De 450 Mb!



Download misc 50.First.Dates.1080p.Castellano.CadagotoHD



BitShare Links De 450 Mb Intercambiables!




Download misc 50.First.Dates.1080p.Castellano.CadagotoHD






CadagotoHD






Si Los Links No Estan On-Line,avisarme Asi Tratare De Reponerlos..Gracias!

Aportar Toma Buen Tiempo,Resubir Mucho Mas ,Agradecer No Cuesta Nada !






Descargar 50 Primeras Citas 2004 BluRay 1080p Mkv x264 Español(Esp)AC3/Ingles(Us)AC3 Sub Esp Comedia Romantica Pelicula Gratis



Necesitás estar Registrado para dejar comentarios en la descarga 50 Primeras Citas 2004 BluRay 1080p Mkv x264 Español(Esp)AC3/Ingles(Us)AC3 Sub Esp Comedia Romantica

Información del Post