The Maze [2010][DVDRip Xvid][Sub Esp][Terror][BS/FL]


Descargar The Maze [2010][DVDRip Xvid][Sub Esp][Terror][BS/FL] Película Gratis 1 link



Argentina Warez » Descargas Gratis » Películas Gratis The Maze [2010][DVDRip Xvid][Sub Esp][Terror][BS/FL]
27-mar-2011
Dano88
Baneado ;(
The Maze [2010][DVDRip Xvid][Sub Esp][Terror][BS/FL]




Titulo: The Maze
Año: 2010
Duración: 90 min.
Genero: Terror
País:
Idioma: Ingles
Subtitulos: Español
Productora: Ground Glass Entertainment
Musica: Lance Montgomery
Fotografia: Ephraim Smith
Guion: Katy Baldwin, Timothy Gutierrez
Director: Steve Shimek
Reparto: Shalaina Castle, Brandon Sean Pearson, Clare Niederpruem, Kyle Paul, Tye Nelson, Luke Drake, Richard Dutcher



Un grupo de amigos decide ir de noche a jugar en un misterioso laberinto de maíz donde ha desaparecido una persona. Ellos desconocen que, aparte de ellos, un enigmático sujeto de chaqueta con capucha roja deambula por el laberinto. De repente, este intruso comienza a asesinarlos sin explicación alguna, lo que transformará un simple divertimento en una cacería mortal.


Código:
General

Format :     AVI
Format/Info :     Audio Video Interleave
File size :     697 MiB
Duration :     1h 30mn
Overall bit rate :     1 076 Kbps
Movie name :     The.Maze.DVDR.NTSC.R1.Title1.DVDRip
Writing application :     VirtualDubMod 1.5.10.2 (build 2540/release)
Writing library :     VirtualDubMod build 2540/release
Original source form/Name :     The.Maze.DVDR.NTSC.R1

Video
ID :     0
Format :     MPEG-4 Visual
Format profile :     Advanced Simple@L5
Format settings, BVOP :     Yes
Format settings, QPel :     No
Format settings, GMC :     No warppoints
Format settings, Matrix :     Default (H.263)
Muxing mode :     Packed bitstream
Codec ID :     XVID
Codec ID/Hint :     XviD
Duration :     1h 30mn
Bit rate :     872 Kbps
Width :     704 pixels
Height :     400 pixels
Display aspect ratio :     16:9
Frame rate :     29.970 fps
Color space :     YUV
Chroma subsampling :     4:2:0
Bit depth :     8 bits
Scan type :     Progressive
Bits/(Pixel*Frame) :     0.103
Stream size :     565 MiB (81%)
Writing library :     XviD 1.1.2 (UTC 2006-11-01)

Audio
ID :     1
Format :     MPEG Audio
Format version :     Version 1
Format profile :     Layer 3
Mode :     Joint stereo
Mode extension :     MS Stereo
Codec ID :     55
Codec ID/Hint :     MP3
Duration :     1h 30mn
Bit rate mode :     Constant
Bit rate :     192 Kbps
Channel(s) :     2 channels
Sampling rate :     48.0 KHz
Stream size :     124 MiB (18%)
Alignment :     Split accross interleaves
Interleave, duration :     33 ms (1.00 video frame)
Interleave, preload duration :     500 ms
Writing library :     LAME3.98.2










Código:
http://bitshare.com/files/en75rmf3/E.L.2010_DVDRIP.SUB.BY.DANI.part1.rar.html
http://bitshare.com/files/d3qn3557/E.L.2010_DVDRIP.SUB.BY.DANI.part2.rar.html


Código:
http://www.filesonic.com/file/364357294/E.L.2010_DVDRIP.SUB.BY.DANI.part1.rar
http://www.filesonic.com/file/364362701/E.L.2010_DVDRIP.SUB.BY.DANI.part2.rar

Descargar The Maze [2010][DVDRip Xvid][Sub Esp][Terror][BS/FL] Pelicula Gratis



Necesitás estar Registrado para dejar comentarios en The Maze [2010][DVDRip Xvid][Sub Esp][Terror][BS/FL]

Información del Post