Descargar El Rito (2011) DVDRip.(Audio.Latino) 1 Link [Excelente Calidad] Gratis


Descargar Descargar El Rito (2011) DVDRip.(Audio.Latino) 1 Link [Excelente Calidad] Gratis Película Gratis 1 link por Mega y Mediafire



Argentina Warez » Descargas Gratis » Películas Gratis Descargar El Rito (2011) DVDRip.(Audio.Latino) 1 Link [Excelente Calidad] Gratis
16-abr-2011
estefi_ponce
Premium User
Descargar El Rito (2011) DVDRip.(Audio.Latino) 1 Link [Excelente Calidad] Gratis




FICHA TÉCNICA
TÍTULO ORIGINAL: The Rite
GÉNERO: Drama, Terror, Thriller
AÑO: 2011
DURACIÓN: 112 min.
PAÍS: [Estados Unidos]
DIRECTOR:Mikael Håfström (AKA Mikael Hafström)
PRODUCTORA:New Line Cinema
FORMATO: RMVB
CALIDAD: DVDRip
AUDIO: Español Latino
SUBTITULOS: no
TAMAÑO DEL ARCHIVO: 453 MB




Código:
General
Complete name                    : th3.r1t3l.latino.by.ataquero.rmvb
Format                           : RealMedia
File size                        : 453 MiB
Duration                         : 1h 53mn
Overall bit rate                 : 546 Kbps

Video
ID                               : 1
Format                           : RealVideo 4
Codec ID                         : RV40
Codec ID/Info                    : Based on AVC (H.264), Real Player 9
Duration                         : 1h 53mn
Bit rate                         : 449 Kbps
Width                            : 640 pixels
Height                           : 272 pixels
Display aspect ratio             : 2.35:1
Frame rate                       : 23.976 fps
Bits/(Pixel*Frame)               : 0.108
Stream size                      : 365 MiB (81%)

Audio
ID                               : 0
Format                           : Cooker
Codec ID                         : cook
Codec ID/Info                    : Based on G.722.1, Real Player 6
Duration                         : 1h 53mn
Bit rate                         : 96.5 Kbps
Channel(s)                       : 2 channels
Sampling rate                    : 44.1 KHz
Bit depth                        : 16 bits
Stream size                      : 78.4 MiB (17%)





Michael Kovak (Colin O'Donoghue) es un decepcionado seminarista norteamericano que decide asistir a un curso de exorcismos en el Vaticano, lo que hará que su fe se tambalee y tenga que enfrentarse a terribles fuerzas demoniacas. En Roma conocerá al Padre Lucas (Hopkins), un sacerdote poco ortodoxo que le enseñará el lado oscuro de la Fe...



















VER ENLACES DE DESCARGA AQUÍ

Descargar Descargar El Rito (2011) DVDRip.(Audio.Latino) 1 Link [Excelente Calidad] Gratis Pelicula Gratis


06-jun-2011
fdpam
White User
Re: Descargar El Rito (2011) DVDRip.(Audio.Latino) 1 Link [Excelente Calidad] Gratis
bajando para ver k tal,
24-sep-2011
martincyber
Silver User
Re: Descargar El Rito (2011) DVDRip.(Audio.Latino) 1 Link [Excelente Calidad] Gratis
muchas gracias man exselente pelicula
18-oct-2011
yeestin
New User
Re: Descargar El Rito (2011) DVDRip.(Audio.Latino) 1 Link [Excelente Calidad] Gratis
descargando!!!!......a ver q tal.!!!..
02-feb-2012
walmar_03
White User
Re: Descargar El Rito (2011) DVDRip.(Audio.Latino) 1 Link [Excelente Calidad] Gratis
Gracias por el aporte, lo estoy bajando
27-abr-2012
tranklo
New User
Re: Descargar El Rito (2011) DVDRip.(Audio.Latino) 1 Link [Excelente Calidad] Gratis
linkkkkkkk rotoooooooooooooooooooooooooooooooooo y vannnnnnnnnnn ufaaaaaaaaaaaa
17-sep-2012
hucofi
New User
Re: Descargar El Rito (2011) DVDRip.(Audio.Latino) 1 Link [Excelente Calidad] Gratis
muchas gracias por el aporte revisare el link

Necesitás estar Registrado para dejar comentarios en la descarga Descargar El Rito (2011) DVDRip.(Audio.Latino) 1 Link [Excelente Calidad] Gratis

Información del Post

  • Puntos Puntos: 0 |
  • Visitas Visitas: 9163 |
  • Autor Publicado por: estefi_ponce |
  • Categoría: Películas Gratis