Harry Potter y las Reliquias de la Muerte (1º parte)[2010][Bd-Rip 1080p AVC-Intra MKV][Ac3 Esp/Ing]


Descargar Harry Potter y las Reliquias de la Muerte (1º parte)[2010][Bd-Rip 1080p AVC-Intra MKV][Ac3 Esp/Ing] Película Gratis 1 link por Mega y Mediafire



Argentina Warez » Descargas Gratis » Películas Gratis Harry Potter y las Reliquias de la Muerte (1º parte)[2010][Bd-Rip 1080p AVC-Intra MKV][Ac3 Esp/Ing]
17-abr-2011
ricjosep
Silver User
Harry Potter y las Reliquias de la Muerte (1º parte)[2010][Bd-Rip 1080p AVC-Intra MKV][Ac3 Esp/Ing]
Harry Potter y las Reliquias de la Muerte (1º parte):



Título: Harry Potter y las Reliquias de la Muerte (1º parte)
Título original:
Harry Potter and the Deathly Hallows (part I)
País: Reino Unido
Duración: 146 min
Año: 2010
Género: Fantastico, Aventuras y Drama
Servidor: Megaupload, UploadStation y Fileserve
Codec: AVC-Intra 100
Audio: Español Dolbi Digital 5.1 (640 kb/s)
Audio: Ingles Dolbi Digital 5.1 (640 kb/s)
Subtitulos: Español y Ingles
Resolucion: 1920x1080
Tamaño: 7.77 GB
Formato: MKV (.mkv)
Nº de Partes por Megaupload: 84+4 (94.6MB)
Nº de Partes por Fileserve y UploadStation: 18+2 (458MB)

Media Info:

Spoiler
Format : Matroska
File size : 7.77 GiB
Duration : 2h 26mn
Overall bit rate : 7 615 Kbps
Movie name : Harry Potter y las Reliquias de la Muerte (1º parte) by Ricjosep
Encoded date : UTC 2011-04-09 19:40:35
Writing application : mkvmerge v4.5.0 ('Speed of Light') creado el Feb 1 2011 02:10:32
Writing library : libebml v1.2.0 + libmatroska v1.1.0

Video
ID : 1
Format : AVC
Format/Info : Advanced Video Codec
Format profile : High@L4.1
Format settings, CABAC : Yes
Format settings, ReFrames : 3 frames
Muxing mode : Header stripping
Codec ID : V_MPEG4/ISO/AVC
Duration : 2h 26mn
Bit rate mode : Variable
Bit rate : 6 184 Kbps
Maximum bit rate : 35.0 Mbps
Width : 1 920 pixels
Height : 1 080 pixels
Display aspect ratio : 16:9
Frame rate : 23.976 fps
Standard : NTSC
Color space : YUV
Chroma subsampling : 4:2:0
Bit depth : 8 bits
Scan type : Progressive
Bits/(Pixel*Frame) : 0.124
Stream size : 6.31 GiB (81%)
Color primaries : BT.709-5, BT.1361, IEC 61966-2-4, SMPTE RP177
Transfer characteristics : BT.709-5, BT.1361
Matrix coefficients : BT.709-5, BT.1361, IEC 61966-2-4 709, SMPTE RP177

Audio #1
ID : 2
Format : AC-3
Format/Info : Audio Coding 3
Mode extension : CM (complete main)
Muxing mode : Header stripping
Codec ID : A_AC3
Duration : 2h 26mn
Bit rate mode : Constant
Bit rate : 640 Kbps
Channel(s) : 6 channels
Channel positions : Front: L C R, Side: L R, LFE
Sampling rate : 48.0 KHz
Bit depth : 16 bits
Compression mode : Lossy
Stream size : 669 MiB (8%)
Title : Castellano
Language : Spanish

Audio #2
ID : 3
Format : AC-3
Format/Info : Audio Coding 3
Mode extension : CM (complete main)
Muxing mode : Header stripping
Codec ID : A_AC3
Duration : 2h 26mn
Bit rate mode : Constant
Bit rate : 640 Kbps
Channel(s) : 6 channels
Channel positions : Front: L C R, Side: L R, LFE
Sampling rate : 48.0 KHz
Bit depth : 16 bits
Compression mode : Lossy
Stream size : 669 MiB (8%)
Title : Ingles
Language : English

Text #1
ID : 4
Format : PGS
Muxing mode : zlib
Codec ID : S_HDMV/PGS
Codec ID/Info : The same subtitle format used on BDs/HD-DVDs
Language : Spanish

Text #2
ID : 5
Format : PGS
Muxing mode : zlib
Codec ID : S_HDMV/PGS
Codec ID/Info : The same subtitle format used on BDs/HD-DVDs
Language : Spanish

Text #3
ID : 6
Format : PGS
Muxing mode : zlib
Codec ID : S_HDMV/PGS
Codec ID/Info : The same subtitle format used on BDs/HD-DVDs
Language : English

Text #4
ID : 7
Format : PGS
Muxing mode : zlib
Codec ID : S_HDMV/PGS
Codec ID/Info : The same subtitle format used on BDs/HD-DVDs
Language : English


Sinopsis:


Primera parte de la adaptación al cine del último libro de la saga Harry Potter, "Harry Potter y las Reliquias de la Muerte". La historia continúa desde el punto en el que terminó "El príncipe mestizo": Una tarea casi imposible cae sobre los hombros de Harry: deberá encontrar y destruir los horrocruxes restantes para dar fin al reinado de Lord Voldemort. En el episodio final de la saga, el hechicero de 17 años parte junto con sus amigos Hermione Granger y Ron Weasley en un peligroso viaje por Inglaterra para encontrar los objetos que contienen los fragmentos del alma del Señor Tenebroso, los cuales garantizan su longevidad. Pero el camino no será fácil pues el lado oscuro adquiere más poder con cada minuto que pasa y las lealtades serán puestas a prueba. Harry deberá usar todos los conocimientos que gracias a Dumbledore ha adquirido sobre su enemigo para poder encontrar la forma de sobrevivir a esta última aventura.


Enlaces:





http://ncrypt.in/folder-m6Parurg

Muestras:



Harry Potter y la Piedra Filosofal
Harry Potter y la Camara Secreta
Harry Potter y el Prisionero de Azkaban
Harry Potter y el Caliz de Fuego
Harry Potter y la Orden del Fenix
Harry Potter y el Misterio del Principe Mestizo

Descargar Harry Potter y las Reliquias de la Muerte (1º parte)[2010][Bd-Rip 1080p AVC-Intra MKV][Ac3 Esp/Ing] Pelicula Gratis


24-may-2011
ricjosep
Silver User
Re: Harry Potter y las Reliquias de la Muerte (1º parte)[2010][Bd-Rip 1080p AVC-Intra MKV][Ac3 Esp/I
añadido nuevo server intercambiable con fileserve
12-ago-2012
ricjosep
Silver User
Re: Harry Potter y las Reliquias de la Muerte (1º parte)[2010][Bd-Rip 1080p AVC-Intra MKV][Ac3 Esp/I
re-subida rapidgator
12-ago-2012
escorpionariel
Premium User
Re: Harry Potter y las Reliquias de la Muerte (1º parte)[2010][Bd-Rip 1080p AVC-Intra MKV][Ac3 Esp/I
Gracias !!

Necesitás estar Registrado para dejar comentarios en Harry Potter y las Reliquias de la Muerte (1º parte)[2010][Bd-Rip 1080p AVC-Intra MKV][Ac3 Esp/Ing]

Información del Post

  • Puntos Puntos: 0 |
  • Visitas Visitas: 1338 |
  • Autor Publicado por: ricjosep |
  • Categoría: Películas Gratis