La Pasion De Cristo [DVDrip][Castellano][Drama][2004]


Descargar La Pasion De Cristo [DVDrip][Castellano][Drama][2004] Película Gratis 1 link por Mega y Mediafire



Argentina Warez » Descargas Gratis » Películas Gratis La Pasion De Cristo [DVDrip][Castellano][Drama][2004]
23-abr-2011
empresayer
Silver User
La Pasion De Cristo [DVDrip][Castellano][Drama][2004]



Información de la Película

Título original: The Passion Of The Christ
Año: 2004
Género: Drama
Duración: 126 Minutos

Resumen:

Año 30 de nuestra era. En la provincia romana de Judea, un misterioso carpintero llamado Jesus de Nazareth comienza a anunciar la llegada del "reino de Dios" y se rodea de un grupo de humildes pescadores: los Apostoles. Durante siglos, el pueblo judio habia esperado la llegada del Mesias - personaje providencial que liberaria su sagrada patria e instauraria un nuevo orden basado en la justicia-. Las enseñanzas de Jesus atraen a una gran multitud de seguidores que lo reconocen como el Mesias. Alarmado por la situacion, el Sanedrin, con la ayuda de Judas Iscariote, uno de los doce Apostoles, arresta a Jesus. Acusado de traicion a Roma, Cristo es entregado a Poncio Pilato, quien, para evitar un motin, lo condena a a morir en la cruz como un vulgar criminal.

Datos Importantes

Calidad del video: DVD RIP
Peso: 1100 mb
Idioma del audio: Español España


Código:
General
Complete name                    : 109_EmpresaYER.avi
Format                           : AVI
Format/Info                      : Audio Video Interleave
File size                        : 1.06 GiB
Duration                         : 2h 5mn
Overall bit rate                 : 1 209 Kbps

Video
ID                               : 0
Format                           : MPEG-4 Visual
Format profile                   : Simple@L3
Format settings, BVOP            : 2
Format settings, QPel            : No
Format settings, GMC             : No warppoints
Format settings, Matrix          : Default (H.263)
Muxing mode                      : Packed bitstream
Codec ID                         : XVID
Codec ID/Hint                    : XviD
Duration                         : 2h 5mn
Bit rate                         : 1 007 Kbps
Width                            : 720 pixels
Height                           : 480 pixels
Display aspect ratio             : 3:2
Frame rate                       : 23.976 fps
Standard                         : NTSC
Color space                      : YUV
Chroma subsampling               : 4:2:0
Bit depth                        : 8 bits
Scan type                        : Progressive
Compression mode                 : Lossy
Bits/(Pixel*Frame)               : 0.122
Stream size                      : 907 MiB (83%)
Writing library                  : XviD 1.1.0 Beta1 (UTC 2005-01-16)

Audio
ID                               : 1
Format                           : MPEG Audio
Format version                   : Version 1
Format profile                   : Layer 3
Codec ID                         : 55
Codec ID/Hint                    : MP3
Duration                         : 2h 5mn
Bit rate mode                    : Constant
Bit rate                         : 192 Kbps
Channel(s)                       : 2 channels
Sampling rate                    : 44.1 KHz
Compression mode                 : Lossy
Delay relative to video          : 26ms
Stream size                      : 173 MiB (16%)
Alignment                        : Split accross interleaves
Interleave, duration             : 42 ms (1.00 video frame)
Title                            : Audio Stream
Writing library                  : LAME3.92







Código:
http://www.fileserve.com/file/dzfnawF

Descargar La Pasion De Cristo [DVDrip][Castellano][Drama][2004] Pelicula Gratis



Necesitás estar Registrado para dejar comentarios en La Pasion De Cristo [DVDrip][Castellano][Drama][2004]

Información del Post

  • Puntos Puntos: 0 |
  • Visitas Visitas: 687 |
  • Autor Publicado por: empresayer |
  • Categoría: Películas Gratis