Rapido y Furioso 5 [2011][TS-HQ][Sub Esp][Accion](FS/FL)


Descargar Rapido y Furioso 5 [2011][TS-HQ][Sub Esp][Accion](FS/FL) Película Gratis 1 link por Mega y Mediafire



Argentina Warez » Descargas Gratis » Películas Gratis Rapido y Furioso 5 [2011][TS-HQ][Sub Esp][Accion](FS/FL)
28-abr-2011
Dano88
Baneado ;(
Rapido y Furioso 5 [2011][TS-HQ][Sub Esp][Accion](FS/FL)




Titulo Original: Rapido y Furioso 5
Año: 2011
Duración: 118 min.
Genero: Acción
País: EE UU
Director: Justin Lin
Guion: Chris Morgan, Gary Scott Thompson
Productora: Dark Side Productions, Original Film
Musica: Brian Tyler
Fotografia: Stephen F. Windon
Reparto: Vin Diesel, Paul Walker, Dwayne Johnson, Jordana Brewster, Tyrese Gibson, Matt Schulze
Sitio Oficial: www.fastandfurious5.es



Dominic y su tripulación se encuentran en el lado equivocado de la ley, una vez más en su intento de cambiar carriles entre un despiadado capo de la droga y un agente federal implacable.


Código:
General

Formato: AVI
Tamaño del archivo: 1.11 GB
Duración: 1h 58mn
Idioma: Ingles
Subtitulos: Español
Tasa de bits total: 1 340 Kbps
La colección de la escritura: MPlayer

Video
ID: 0
Formato: MPEG-4 Visual
Formato del perfil: Simple @ L1
Ajustes del formato, BVOP: No
La configuración del formato, Qpel: No
La configuración del formato, GMC: No warppoints
La configuración del formato, Matrix: Default (H.263)
ID Códec: XVID
ID Codec / Pista: XviD
Duración: 1h 58mn
Velocidad de grabación: 1 200 Kbps
Ancho: 640 pixeles
Altura: 352 píxeles
Mostrar la relación de aspecto 16:9
Velocidad de cuadros: 23.976 fps
Espacio de color: YUV
Submuestreo Chroma: 4:2:0
La profundidad de bits: 8 bits
Tipo de exploración: Progresivo
Bits / (Pixel * cuadro): 0.222
Stream size: 1 019 MiB (90%)
Escribir la colección: Lavc51.40.2

Audio
ID: 1
Formato: MPEG Audio
Formato de la versión: Versión 1
Formato del perfil: Layer 3
ID Códec: 55
ID Codec / Pista: MP3
Duración: 1h 58mn
Poco el modo de tasa: Constante
Velocidad de bits: 128 Kbps
Canal (s): 2 canales
Frecuencia de muestreo: 44,1 KHz
Stream size: 109 MiB (10%)
Alineación: Alineados sobre interpola
Intercalar, duración: 26 ms (0,63 fotograma de vídeo)
Intercalar, precarga duración: 522 ms






Código:
http://freakshare.com/files/y0muz59e/FAF.5_TS_Sub_By_Dani.part1.rar.html
http://freakshare.com/files/l5wn6a6m/FAF.5_TS_Sub_By_Dani.part2.rar.html
http://freakshare.com/files/nhp2tiql/FAF.5_TS_Sub_By_Dani.part3.rar.html


Código:
http://www.fileserve.com/file/4kzP8cU
http://www.fileserve.com/file/nbfW4cv
http://www.fileserve.com/file/6cax6nV

Descargar Rapido y Furioso 5 [2011][TS-HQ][Sub Esp][Accion](FS/FL) Pelicula Gratis


28-abr-2011
sginfor
White User
Re: Rapido y Furioso 5 [2011][TS-HQ][Sub Esp][Accion](FS/FL)
gracias por el aporte, voy a bajarla.
28-abr-2011
blankukis
Silver User
Re: Rapido y Furioso 5 [2011][TS-HQ][Sub Esp][Accion](FS/FL)
los links no sirven, pero gracias
28-abr-2011
viento-afavor
Black User
Re: Rapido y Furioso 5 [2011][TS-HQ][Sub Esp][Accion](FS/FL)
si sirven ahora mismo estoy descargandolos
solo voy a probar si tiene buena calidad y comento de una ves
28-abr-2011
heero17
King User
Re: Rapido y Furioso 5 [2011][TS-HQ][Sub Esp][Accion](FS/FL)
gracias men
06-may-2011
papelitop
White User
Re: Rapido y Furioso 5 [2011][TS-HQ][Sub Esp][Accion](FS/FL)
bajando desde ya puntos ajaj xao
30-may-2011
risok267
White User
Re: Rapido y Furioso 5 [2011][TS-HQ][Sub Esp][Accion](FS/FL)
como puedo decargar esta mendiga pelicula

Necesitás estar Registrado para dejar comentarios en Rapido y Furioso 5 [2011][TS-HQ][Sub Esp][Accion](FS/FL)

Información del Post