Thor 2011 TS XVID AC3 [HQ Hive-CM8 + Sub Esp][Mejor Version]


Descargar Thor 2011 TS XVID AC3 [HQ Hive-CM8 + Sub Esp][Mejor Version] Película Gratis 1 link por Mega y Mediafire



Argentina Warez » Descargas Gratis » Películas Gratis Thor 2011 TS XVID AC3 [HQ Hive-CM8 + Sub Esp][Mejor Version]
11-may-2011
MAXIGUIOT
White User
Thor 2011 TS XVID AC3 [HQ Hive-CM8 + Sub Esp][Mejor Version]



La Mejor Version Del Momento " Mejor Video" , " Mejor Audio" , Mejor Subtitulo.


El valiente y arrogante guerrero Thor, responsable de un conflicto bélico, es desterrado por su regio padre del celestial reino de Asgard y condenado a vivir en la Tierra rodeado de seres humanos... Adaptación del superhéroe mitológico nórdico. Se centra en sus raíces, de forma similar a como lo hizo "Batman Begins".


TÍTULO ORIGINAL: Thor
AÑO: 2011
DURACIÓN: 130 min.
PAÍS: Estados Unidos
DIRECTOR: Kenneth Branagh
GUIÓN: Mark Protosevich (Personajes: Stan Lee, Jack Kirby)
MÚSICA: Patrick Doyle
FOTOGRAFÍA: Haris Zambarloukos
REPARTO: Chris Hemsworth, Natalie Portman, Anthony Hopkins, Idris Elba, Colm Feore, Stellan Skarsgard, Rene Russo, Ray Stevenson, Jamie Alexander, Kat Dennings, Tom Hiddleston, Tadanobu Asano, Adriana Barraza, Josh Dallas, Clark Gregg, Dakota Goyo, Joshua Cox
PRODUCTORA: Marvel Studios / Paramount Pictures
GÉNERO: Fantástico. Acción. Aventuras | Superhéroes. Cómic. Mitología. Cine épico. 3-D





[NFO]Thx Hive

CM8 Doing It Right The First Time


Sources:
Video: French TS
Thor.2011.TRUEFRENCH.TS.MD.XviD-RESOLUTiON
Audio: Imagines Line (very good line)

Encode:
again a bit late this release- but hey i cant
do all at once
the french video was very good to begin with,
just had some flaws, some scenes were very
reddish the other scenes good or too less colour.
There is no way for one setting for the complete
movie so i had to cut the movie in parts and do
every part differently as needed.
Video is shorter than imagines version but only
because i didnt add the endcredits.
only the bonuspart after the encredits is attached
right afterwards at the end of the movie.
Audio is synced back to the french video, there
were still some minor issues around +-200ms
to get everything insync.
everything looks good now.
enjoy

Video: 720x306 @bitrate 1800 2pass
Audio: English AC3 2.0 Stereo



General
Complete name : Thor.2011.TS.XVID.AC3.HQ.Hive-CM8.avi
Format : AVI
Format/Info : Audio Video Interleave
File size : 1.54 GiB
Duration : 1h 41mn
Overall bit rate : 2 185 Kbps
Writing application : Nandub v1.0rc2
Writing library : Nandub build 1853/release

Video
ID : 0
Format : MPEG-4 Visual
Format profile : Advanced Simple@L5
Format settings, BVOP : 2
Format settings, QPel : Yes
Format settings, GMC : No warppoints
Format settings, Matrix : Default (H.263)
Muxing mode : Packed bitstream
Codec ID : XVID
Codec ID/Hint : XviD
Duration : 1h 41mn
Bit rate : 1 919 Kbps
Width : 720 pixels
Height : 306 pixels
Display aspect ratio : 2.35:1
Frame rate : 25.000 fps
Color space : YUV
Chroma subsampling : 4:2:0
Bit depth : 8 bits
Scan type : Progressive
Compression mode : Lossy
Bits/(Pixel*Frame) : 0.348
Stream size : 1.35 GiB (88%)
Writing library : XviD 1.2.1 (UTC 2008-12-04)

Audio
ID : 1
Format : AC-3
Format/Info : Audio Coding 3
Mode extension : CM (complete main)
Codec ID : 2000
Duration : 1h 41mn
Bit rate mode : Constant
Bit rate : 256 Kbps
Channel(s) : 2 channels
Channel positions : Front: L R
Sampling rate : 48.0 KHz
Bit depth : 16 bits
Compression mode : Lossy
Stream size : 185 MiB (12%)
Alignment : Split accross interleaves
Interleave, duration : 40 ms (1.00 video frame)
Interleave, preload duration : 500 ms
[/NFO]






























2 LINKS

Resubidos Son Compatibles con los anteriores.
Código:
http://www.fileserve.com/file/vewVWhF
http://www.fileserve.com/file/cndcpmm

Como Siempre Lo hice dando los creditos a quien se lo merece. ;D

Gracias a Mi buen amigo " alancito " por sus subtitulos y compartirmelos para que los pueda compartir con todos ustedes. Agradescanlo que las cosas cuestan y este sutitulo es el mejor que vi hasta hoy en dia me mire toda la pelicula y se los puedo garantizar es un Groso este tipo

Sus Palabras:

DESPUES DE TRABAJAR 8 HORAS CON ESTE SUB QUEDARON 99% PERFECTOS,TANTO EN TIEMPOS Y TRADUCCCION ESPERO QUE LES GUSTE SE QUE LOS HICE ESPERAR PERO TRATE DE HACER LOS MEJORES SUBTITULOS NO ES FACIL CORREGIR Y ARREGLAR AÑADIENDO LINEAS Y REVISANDO LA ORTOGRAFIA,Y TIENES QUE VER TODA LA MOVIE PARA SABER SI QUEDARON BUENOS,BUENO ESPERO QUE LES GUSTE MI TRABAJO.





Descargar Thor 2011 TS XVID AC3 [HQ Hive-CM8 + Sub Esp][Mejor Version] Pelicula Gratis


25-jun-2011
kobain25
New User
Re: Thor 2011 TS XVID AC3 [HQ Hive-CM8 + Sub Esp][Mejor Version]
gracias. Muy bueno el aporte
25-jun-2011
ricky3010
White User
Re: Thor 2011 TS XVID AC3 [HQ Hive-CM8 + Sub Esp][Mejor Version]
bajando graxias
31-jul-2011
Toro4Fire11
Baneado ;(
Re: Thor 2011 TS XVID AC3 [HQ Hive-CM8 + Sub Esp][Mejor Version]
Gracias!!

Necesitás estar Registrado para dejar comentarios en la descarga Thor 2011 TS XVID AC3 [HQ Hive-CM8 + Sub Esp][Mejor Version]

Información del Post

  • Puntos Puntos: 0 |
  • Visitas Visitas: 475 |
  • Autor Publicado por: MAXIGUIOT |
  • Categoría: Películas Gratis