Star Wars: Episodio III La Venganza De Los Sith(2005)[HD-1080p][Dual+Sbt.][Cc.Fición][MKV]


Descargar Star Wars: Episodio III La Venganza De Los Sith(2005)[HD-1080p][Dual+Sbt.][Cc.Fición][MKV] Película Gratis 1 link por Mega y Mediafire



Argentina Warez » Descargas Gratis » Películas Gratis Star Wars: Episodio III La Venganza De Los Sith(2005)[HD-1080p][Dual+Sbt.][Cc.Fición][MKV]
12-may-2011
mañolo1971
Silver User
Star Wars: Episodio III La Venganza De Los Sith(2005)[HD-1080p][Dual+Sbt.][Cc.Fición][MKV]



TITULO ORIGINAL Star Wars: Episode III Revenge of the Sith
AÑO 2005
DURACIÓN 140 min.
PAÍS [Estados Unidos]
DIRECTOR George Lucas
GUIÓN George Lucas & Jonathan Hales
MÚSICA John Williams
FOTOGRAFÍA David Tattersall
REPARTO
Ewan McGregor, Natalie Portman, Hayden Christensen, Samuel L. Jackson, Ian McDiarmid, Ahmed Best,
Anthony Daniels, Frank Oz, Andrew Secombe, Silas Carson, Kenny Baker, Christopher Lee, Jimmy Smits,
Peter Mayhew, Keisha Castle-Hughes, Trisha Noble, Bruce Spence, Temuera Morrison
PRODUCTORA 20th Century Fox
WEB OFICIAL StarWars.com | Requested page not found
GENERO Ciencia-Ficción. Aventuras


Último capítulo de la saga de Star Wars, en el que Anakin Skywalker definitivamente se pasa al lado oscuro. En el Episodio III aparecerá el General Grievous, un ser implacable mitad-alien mitad-robot, el líder del ejército separatista Droid. Los Sith son los amos del lado oscuro de la Fuerza y los enemigos de los Jedi. Ellos fueron prácticamente exterminados por los Jedi hace mil años, pero la orden del mal sobrevivió en la clandestinidad.


MDEDIAINFO
Spoiler
General

Complete name : Star Wars Episodio III - La Venganza de los Sith [HD 1080p][Dual]by gusanito & manolo.mkv
Format : Matroska
File size : 8.37 GiB
Duration : 2h 14mn
Overall bit rate : 8 917 Kbps
Movie name : EP-III La venganza de los Sith - [HDTV DUAL+SUBS][1080p]
Encoded date : UTC 2008-09-08 20:08:33
Writing application : mkvmerge v2.1.0 ('Another Place To Fall') built on Aug 19 2007 13:40:07
Writing library : libebml v0.7.7 + libmatroska v0.8.1
Video
ID : 1
Format : AVC
Format/Info : Advanced Video Codec
Format profile : High@L5.1
Format settings, CABAC : Yes
Format settings, ReFrames : 8 frames
Codec ID : V_MPEG4/ISO/AVC
Duration : 2h 14mn
Bit rate : 7 908 Kbps
Nominal bit rate : 8 338 Kbps
Width : 1 920 pixels
Height : 816 pixels
Display aspect ratio : 2.35:1
Frame rate : 25.000 fps
Color space : YUV
Chroma subsampling : 4:2:0
Bit depth : 8 bits
Scan type : Progressive
Bits/(Pixel*Frame) : 0.202
Stream size : 7.42 GiB (89%)
Title : STARWARS EPII - HDTV 1080p
Writing library : x264 core 56 svn-667C
Encoding settings : cabac=1 / ref=5 / deblock=1:-4:-4 / analyse=0x3:0x133 / me=umh / subme=6 / brdo=1 / mixed_ref=1 / me_range=16 / chroma_me=1 / trellis=1 / 8x8dct=1 / cqm=2 / deadzone=4,6 / chroma_qp_offset=0 / threads=3 / nr=0 / decimate=1 / mbaff=0 / bframes=3 / b_pyramid=1 / b_adapt=1 / b_bias=0 / direct=3 / wpredb=1 / bime=1 / keyint=250 / keyint_min=25 / scenecut=40(pre) / rc=2pass / bitrate=8338 / ratetol=1.0 / rceq='blurCplx^(1-qComp)' / qcomp=0.60 / qpmin=10 / qpmax=51 / qpstep=4 / cplxblur=20.0 / qblur=0.5 / ip_ratio=1.40 / pb_ratio=1.30 / zones=186543,195312,b=0.18 / aq=1:0.3:15.0
Language : Spanish
Audio #1
ID : 2
Format : AC-3
Format/Info : Audio Coding 3
Mode extension : CM (complete main)
Codec ID : A_AC3
Duration : 2h 14mn
Bit rate mode : Constant
Bit rate : 384 Kbps
Channel(s) : 6 channels
Channel positions : Front: L C R, Side: L R, LFE
Sampling rate : 48.0 KHz
Bit depth : 16 bits
Compression mode : Lossy
Stream size : 369 MiB (4%)
Title : ESPAOL AC3 5.1
Language : Spanish
Audio #2
ID : 3
Format : AC-3
Format/Info : Audio Coding 3
Mode extension : CM (complete main)
Codec ID : A_AC3
Duration : 2h 14mn
Bit rate mode : Constant
Bit rate : 448 Kbps
Channel(s) : 6 channels
Channel positions : Front: L C R, Side: L R, LFE
Sampling rate : 48.0 KHz
Bit depth : 16 bits
Compression mode : Lossy
Stream size : 430 MiB (5%)
Title : INGLES AC3 5.1
Language : English
Text #1
ID : 4
Format : UTF-8
Codec ID : S_TEXT/UTF8
Codec ID/Info : UTF-8 Plain Text
Title : SUBS ESPAOL
Language : Spanish
Text #2
ID : 5
Format : UTF-8
Codec ID : S_TEXT/UTF8
Codec ID/Info : UTF-8 Plain Text
Title : SUBS INGLES
Language : English



CONTENEDOR: MKV
FUENTE DE VIDEO: HDTV
CODEC DE VIDEO: X264
FRAMES DE VIDEO: 25.000 FPS
RESOLUCION DE VIDEO: 1080p
TAMAÑO: 8.37 GB





1 http://www.fileserve.com/file/aHkBEEZ
2 http://www.fileserve.com/file/FyJrRsb
3 http://www.fileserve.com/file/Q9SpVmp
4 http://www.fileserve.com/file/eu7cQrB
5 http://www.fileserve.com/file/2r5hPFU
6 http://www.fileserve.com/file/5U76Pfz
7 http://www.fileserve.com/file/dDEqGvd
8 http://www.fileserve.com/file/2cAmRcJ
9 http://www.fileserve.com/file/4WKt4Qp
10 http://www.fileserve.com/file/ffJy83p








Descargar Star Wars: Episodio III La Venganza De Los Sith(2005)[HD-1080p][Dual+Sbt.][Cc.Fición][MKV] Pelicula Gratis


20-jul-2011
aritz16
New User
Re: Star Wars: Episodio III La Venganza De Los Sith(2005)[HD-1080p][Dual+Sbt.][Cc.Fición][MKV]
muchas gracias x la peli tio

Necesitás estar Registrado para dejar comentarios en Star Wars: Episodio III La Venganza De Los Sith(2005)[HD-1080p][Dual+Sbt.][Cc.Fición][MKV]

Información del Post

  • Puntos Puntos: 0 |
  • Visitas Visitas: 3734 |
  • Autor Publicado por: mañolo1971 |
  • Categoría: Películas Gratis