descargar Priest El sicario de dios 2011 [TS/Screener][Castellano/MIC][Aventuras] gratis


Descargar descargar Priest El sicario de dios 2011 [TS/Screener][Castellano/MIC][Aventuras] gratis Película Gratis 1 link por Mega y Mediafire



Argentina Warez » Descargas Gratis » Películas Gratis descargar Priest El sicario de dios 2011 [TS/Screener][Castellano/MIC][Aventuras] gratis
13-may-2011
draxter99
Premium User
descargar Priest El sicario de dios 2011 [TS/Screener][Castellano/MIC][Aventuras] gratis

El sicario de dios 2011 [TS/Screener][Castellano-MIC][Aventuras]


TÍTULO ORIGINAL Priest
AÑO 2011
DURACIÓN 87 min.
PAÍS USA
DIRECTOR Scott Stewart
GUIÓN Cory Goodman (Novela gráfica: Min-Woo Hyung)
MÚSICA Christopher Young
FOTOGRAFÍA Don Burgess
REPARTO Paul Bettany, Cam Gigandet, Maggie Q, Karl Urban, Lily Collins, Stephen Moyer, Mädchen Amick, Christopher Plummer, Brad Dourif
PRODUCTORA Sony Pictures / Buckaroo Entertainment / Michael De Luca Productions / Screen Gems / Stars Road Entertainment / TOKYOPOP
WEB OFICIAL http://www.priest-themovie.com/
GÉNERO Terror. Aventuras. Thriller | Futuro postapocalíptico. Cómic. Vampiros. 3-D

Calidad: TS-Screener
Audio: Castellano-MIC
Tamaño: 1,17Gb

Format : AVI
Format/Info : Audio Video Interleave
File size : 1.37 GiB
Duration : 1h 20mn
Overall bit rate : 2 450 Kbps
Writing application : VirtualDubMod 1.5.4.1 (build 2178/release)
Writing library : VirtualDubMod build 2178/release

Video
ID : 0
Format : MPEG-4 Visual
Format profile : Advanced Simple@L5
Format settings, BVOP : 2
Format settings, QPel : No
Format settings, GMC : No warppoints
Format settings, Matrix : Default (MPEG)
Muxing mode : Packed bitstream
Codec ID : XVID
Codec ID/Hint : XviD
Duration : 1h 20mn
Bit rate : 2 312 Kbps
Width : 720 pixels
Height : 336 pixels
Display aspect ratio : 2.2:1
Frame rate : 25.000 fps
Color space : YUV
Chroma subsampling : 4:2:0
Bit depth : 8 bits
Scan type : Progressive
Compression mode : Lossy
Bits/(Pixel*Frame) : 0.382
Stream size : 1.29 GiB (94%)
Writing library : XviD 61

Audio
ID : 1
Format : MPEG Audio
Format version : Version 1
Format profile : Layer 3
Codec ID : 55
Codec ID/Hint : MP3
Duration : 1h 20mn
Bit rate mode : Constant
Bit rate : 128 Kbps
Channel(s) : 2 channels
Sampling rate : 48.0 KHz
Compression mode : Lossy
Stream size : 73.4 MiB (5%)
Alignment : Aligned on interleaves
Interleave, duration : 40 ms (1.00 video frame)
Interleave, preload duration : 504 ms



1link
Código:
http://tinypasted.com/IJGJCD59

Descargar descargar Priest El sicario de dios 2011 [TS/Screener][Castellano/MIC][Aventuras] gratis Pelicula Gratis


13-may-2011
ciberdvd
White User
Re: descargar Priest El sicario de dios 2011 [TS/Screener][Castellano/MIC][Aventuras] gratis
Genial, gracias.
13-may-2011
El fenix
Premium User
Re: descargar Priest El sicario de dios 2011 [TS/Screener][Castellano/MIC][Aventuras] gratis
Gracias la estaba buscando
13-may-2011
pacorulo
New User
Re: descargar Priest El sicario de dios 2011 [TS/Screener][Castellano/MIC][Aventuras] gratis
Hola alguno me dice como se descarga el sicario de dios, no lo se hacer.
13-may-2011
pacorulo
New User
Re: descargar Priest El sicario de dios 2011 [TS/Screener][Castellano/MIC][Aventuras] gratis
Gracias ya e escontrado el modo.
Muy guapa la pagina !!!!
13-may-2011
FREMIX
White User
Re: descargar Priest El sicario de dios 2011 [TS/Screener][Castellano/MIC][Aventuras] gratis
wena peli
13-may-2011
yara2008
Gold User
Re: descargar Priest El sicario de dios 2011 [TS/Screener][Castellano/MIC][Aventuras] gratis
saludos y gracias, esperemos que se vea bien
14-may-2011
draxter99
Premium User
Re: descargar Priest El sicario de dios 2011 [TS/Screener][Castellano/MIC][Aventuras] gratis
link actualizados
15-may-2011
draxter99
Premium User
Re: descargar Priest El sicario de dios 2011 [TS/Screener][Castellano/MIC][Aventuras] gratis
link actulizados
16-may-2011
draxter99
Premium User
Re: descargar Priest El sicario de dios 2011 [TS/Screener][Castellano/MIC][Aventuras] gratis
link nuevos
19-may-2011
draxter99
Premium User
Re: descargar Priest El sicario de dios 2011 [TS/Screener][Castellano/MIC][Aventuras] gratis
nuevo link actualizado
19-may-2011
ziadhj
Black User
Re: descargar Priest El sicario de dios 2011 [TS/Screener][Castellano/MIC][Aventuras] gratis
Perfecto, Muchas Gracias
20-may-2011
draxter99
Premium User
Re: descargar Priest El sicario de dios 2011 [TS/Screener][Castellano/MIC][Aventuras] gratis
nuevo link otra vez
23-may-2011
draxter99
Premium User
Re: descargar Priest El sicario de dios 2011 [TS/Screener][Castellano/MIC][Aventuras] gratis
actualizado
28-may-2011
draxter99
Premium User
Re: descargar Priest El sicario de dios 2011 [TS/Screener][Castellano/MIC][Aventuras] gratis
nuevo link

Necesitás estar Registrado para dejar comentarios en descargar Priest El sicario de dios 2011 [TS/Screener][Castellano/MIC][Aventuras] gratis

Información del Post

  • Puntos Puntos: 0 |
  • Visitas Visitas: 1666 |
  • Autor Publicado por: draxter99 |
  • Categoría: Películas Gratis