El Señor de los Anillos, la Comunidad del Anillo [2001][Bd-Rip 1080p AVC-Intra MKV][Ac3 Esp/Ing]


Descargar El Señor de los Anillos, la Comunidad del Anillo [2001][Bd-Rip 1080p AVC-Intra MKV][Ac3 Esp/Ing] Película Gratis 1 link por Mega y Mediafire



Argentina Warez » Descargas Gratis » Películas Gratis El Señor de los Anillos, la Comunidad del Anillo [2001][Bd-Rip 1080p AVC-Intra MKV][Ac3 Esp/Ing]
17-may-2011
ricjosep
Silver User
El Señor de los Anillos, la Comunidad del Anillo [2001][Bd-Rip 1080p AVC-Intra MKV][Ac3 Esp/Ing]
El Señor de los Anillos, la Comunidad del Anillo:



Título: El Señor de los Anillos, la Comunidad del Anillo
Título original:
The Lord of the Rings, the Fellowship of the Ring
País: EEUU
Duración: 178 min
Año: 2001
Género: Fantastico, Aventuras y Accion
Servidor: Megaupload, UploadStation y Fileserve
Codec: AVC-Intra 100
Audio: Español Dolbi Digital 5.1 (kb/s)
Audio: Ingles Dolbi Digital 5.1 (kb/s)
Resolucion: 1920x1080
Tamaño: 7.47 GB
Formato: MKV (.mkv)
Nº de Partes por Megaupload: 86+4 (94.6MB)
Nº de Partes por Fileservey UploadStation: 18+2 (458MB)

Media Info:

Código HTML:
General
Format                           : Matroska
File size                        : 7.47 GiB
Duration                         : 2h 58mn
Overall bit rate                 : 5 995 Kbps
Movie name                       : El Señor de los Anillos, la Comunidad del Anillo by Ricjosep
Encoded date                     : UTC 2011-04-16 08:41:56
Writing application              : mkvmerge v4.5.0 ('Speed of Light') creado el Feb  1 2011 02:10:32
Writing library                  : libebml v1.2.0 + libmatroska v1.1.0

Video
ID                               : 1
Format                           : AVC
Format/Info                      : Advanced Video Codec
Format profile                   : High@L4.1
Format settings, CABAC           : Yes
Format settings, ReFrames        : 3 frames
Muxing mode                      : Header stripping
Codec ID                         : V_MPEG4/ISO/AVC
Duration                         : 2h 58mn
Bit rate mode                    : Variable
Bit rate                         : 4 980 Kbps
Maximum bit rate                 : 35.0 Mbps
Width                            : 1 920 pixels
Height                           : 1 080 pixels
Display aspect ratio             : 16:9
Frame rate                       : 23.976 fps
Standard                         : NTSC
Color space                      : YUV
Chroma subsampling               : 4:2:0
Bit depth                        : 8 bits
Scan type                        : Progressive
Bits/(Pixel*Frame)               : 0.100
Stream size                      : 6.21 GiB (83%)
Color primaries                  : BT.709-5, BT.1361, IEC 61966-2-4, SMPTE RP177
Transfer characteristics         : BT.709-5, BT.1361
Matrix coefficients              : BT.709-5, BT.1361, IEC 61966-2-4 709, SMPTE RP177

Audio #1
ID                               : 2
Format                           : AC-3
Format/Info                      : Audio Coding 3
Mode extension                   : CM (complete main)
Muxing mode                      : Header stripping
Codec ID                         : A_AC3
Duration                         : 2h 58mn
Bit rate mode                    : Constant
Bit rate                         : 448 Kbps
Channel(s)                       : 6 channels
Channel positions                : Front: L C R, Side: L R, LFE
Sampling rate                    : 48.0 KHz
Bit depth                        : 16 bits
Compression mode                 : Lossy
Stream size                      : 572 MiB (7%)
Title                            : Castellano
Language                         : Spanish

Audio #2
ID                               : 3
Format                           : AC-3
Format/Info                      : Audio Coding 3
Mode extension                   : CM (complete main)
Muxing mode                      : Header stripping
Codec ID                         : A_AC3
Duration                         : 2h 58mn
Bit rate mode                    : Constant
Bit rate                         : 448 Kbps
Channel(s)                       : 6 channels
Channel positions                : Front: L C R, Side: L R, LFE
Sampling rate                    : 48.0 KHz
Bit depth                        : 16 bits
Compression mode                 : Lossy
Stream size                      : 572 MiB (7%)
Title                            : Ingles
Language                         : English

Sinopsis:


En la Tierra Media, el Señor Oscuro Saurón creó los Grandes Anillos de Poder, forjados por los herreros Elfos. Tres para los reyes Elfos, siete para los Señores Enanos, y nueve para los Hombres Mortales. Secretamente, Saurón también forjó un anillo maestro, el Anillo Único, que contiene en sí el poder para esclavizar a toda la Tierra Media. Con la ayuda de un grupo de amigos y de valientes aliados, Frodo emprende un peligroso viaje con la misión de destruir el Anillo Único. Pero el Señor Oscuro Sauron, quien creara el Anillo, envía a sus servidores para perseguir al grupo. Si Sauron lograra recuperar el Anillo, sería el final de la Tierra Media.

Enlaces:





http://ncrypt.in/folder-SUzP5pOq

Muestras:



El Señor de los Anillos, las Dos Torres
El Señor de los Anillos, al Retorno del Rey


Descargar El Señor de los Anillos, la Comunidad del Anillo [2001][Bd-Rip 1080p AVC-Intra MKV][Ac3 Esp/Ing] Pelicula Gratis


24-may-2011
ricjosep
Silver User
Re: El Señor de los Anillos, la Comunidad del Anillo [2001][Bd-Rip 1080p AVC-Intra MKV][Ac3 Esp/Ing]
añadido nuevo server intercambiable con fileserve
01-may-2012
Twingotiko
White User
Re: El Señor de los Anillos, la Comunidad del Anillo [2001][Bd-Rip 1080p AVC-Intra MKV][Ac3 Esp/Ing]
descargando..

Necesitás estar Registrado para dejar comentarios en El Señor de los Anillos, la Comunidad del Anillo [2001][Bd-Rip 1080p AVC-Intra MKV][Ac3 Esp/Ing]

Información del Post

  • Puntos Puntos: 0 |
  • Visitas Visitas: 3144 |
  • Autor Publicado por: ricjosep |
  • Categoría: Películas Gratis