descargar Camino a la libertad [DVDRip][Castellano][Drama] gratis


Descargar descargar Camino a la libertad [DVDRip][Castellano][Drama] gratis Película Gratis 1 link por Mega y Mediafire



Argentina Warez » Descargas Gratis » Películas Gratis descargar Camino a la libertad [DVDRip][Castellano][Drama] gratis
18-may-2011
draxter99
Premium User
descargar Camino a la libertad [DVDRip][Castellano][Drama] gratis

Camino a la libertad [DVDRip][Castellano][Drama]


SINOPSIS
Adaptación de 'The Long k: The True Story of a Trek to Freedom' de Slavomir Rawicz. El protagonista narra en primera persona cómo, tras la invasión de Polonia por los alemanes (1939), fue arrestado por el ejército soviético y encarcelado en Siberia; cómo, después, consiguió escapar del gulag (campos de concentración de la Unión Soviética) en compañía de otros presos y, finalmente, cómo huyendo a pie llegaron desde Siberia al Himalaya, al desierto del Gobi y, atravesando el Tibet, acabaron estableciéndose en la India. Recientemente, varios historiadores han puesto en duda la veracidad de esta historia.


TÍTULO ORIGINAL The Way Back
AÑO 2010
DURACIÓN 130 min.
PAÍS usa
DIRECTOR Peter Weir
GUIÓN Peter Weir, Keith R. Clarke (Libro: Slavomir Rawicz)
MÚSICA Burkhard von Dallwitz
FOTOGRAFÍA Russell Boyd
REPARTO Jim Sturgess, Ed Harris, Colin Farrell, Saoirse Ronan, Dragos Bucur, Gustaf Skarsgård, Alexandru Potocean, Mark Strong, Sebastian Urzendowsky
PRODUCTORA Imagenation Abu Dhabi FZ / Exclusive Films / National Geographic Films / On the Road / Point Blank Productions
WEB OFICIAL http://www.thewaybackthemovie.com/
PREMIOS 2010: Oscar: 1 nominación a mejor maquillaje
GÉNERO Aventuras. Drama | Años 40. Naturaleza

Dvdrip PROPER
audio castellano ac3 5.1
con sub para los avisos y carteles

Format : AVI
Format/Info : Audio Video Interleave
Format profile : OpenDML
File size : 2.18 GiB
Duration : 2h 7mn
Overall bit rate : 2 439 Kbps
Writing application : VirtualDubMod 1.5.10.2 (build 2540/release)
Writing library : VirtualDubMod build 2540/release

Video
ID : 0
Format : MPEG-4 Visual
Format settings, BVOP : Yes
Format settings, QPel : No
Format settings, GMC : No warppoints
Format settings, Matrix : Default (H.263)
Codec ID : DX50
Codec ID/Hint : DivX 5
Duration : 2h 7mn
Bit rate : 1 886 Kbps
Width : 720 pixels
Height : 304 pixels
Display aspect ratio : 2.35:1
Frame rate : 25.000 fps
Color space : YUV
Chroma subsampling : 4:2:0
Bit depth : 8 bits
Scan type : Progressive
Compression mode : Lossy
Bits/(Pixel*Frame) : 0.345
Stream size : 1.68 GiB (77%)
Writing library : DivX 3013

Audio
ID : 1
Format : AC-3
Format/Info : Audio Coding 3
Mode extension : CM (complete main)
Codec ID : 2000
Duration : 2h 7mn
Bit rate mode : Constant
Bit rate : 448 Kbps
Channel(s) : 6 channels
Channel positions : Front: L C R, Side: L R, LFE
Sampling rate : 48.0 KHz
Bit depth : 16 bits
Compression mode : Lossy
Stream size : 409 MiB (18%)
Alignment : Split accross interleaves









1link
Código:
http://www.fileserve.com/file/En8EzCH/draxter_9062_Camn.avi
4partes
Código:
http://www.fileserve.com/file/xmv2pvg/draxter_9062_Camn600.part4.rar
http://www.fileserve.com/file/kgAEX2R/draxter_9062_Camn600.part3.rar
http://www.fileserve.com/file/aT8uwQd/draxter_9062_Camn600.part2.rar
http://www.fileserve.com/file/TrhjxWF/draxter_9062_Camn600.part1.rar

Código:
http://freetexthost.com/bikvdo6prj
en este link podran encontrar nuevos link en caso de que los originales esten malos...

Descargar descargar Camino a la libertad [DVDRip][Castellano][Drama] gratis Pelicula Gratis


19-may-2011
draxter99
Premium User
Re: descargar Camino a la libertad [DVDRip][Castellano][Drama] gratis
Resubido
10-jun-2011
HariDaniel
White User
Re: descargar Camino a la libertad [DVDRip][Castellano][Drama] gratis
Esta buena.. lastima los subtitulos en ingles cuando hablan en otro idioma q no es ingles..

Necesitás estar Registrado para dejar comentarios en descargar Camino a la libertad [DVDRip][Castellano][Drama] gratis

Información del Post

  • Puntos Puntos: 0 |
  • Visitas Visitas: 1841 |
  • Autor Publicado por: draxter99 |
  • Categoría: Películas Gratis