Descargar El Mecánico (2011) DVDRip(Audio.Latino) 1Link Excelente Calidad Gratis


Descargar Descargar El Mecánico (2011) DVDRip(Audio.Latino) 1Link Excelente Calidad Gratis Película Gratis 1 link por Mega y Mediafire



Argentina Warez » Descargas Gratis » Películas Gratis Descargar El Mecánico (2011) DVDRip(Audio.Latino) 1Link Excelente Calidad Gratis
24-may-2011
estefi_ponce
Premium User
Descargar El Mecánico (2011) DVDRip(Audio.Latino) 1Link Excelente Calidad Gratis




FICHA TÉCNICA
TÍTULO ORIGINAL: The Mechanic
GÉNERO:Acción. Thriller | Remake
AÑO: 2011
DURACIÓN: 92 min.
PAÍS: [Estados Unidos]
DIRECTOR:Simon West
PRODUCTORA:Millennium Films / Nu Image Entertainment GmbH
FORMATO: RMVB
CALIDAD: dvdrip
AUDIO: Español Latino
SUBTITULOS: no
TAMAÑO DEL ARCHIVO: 300 MB

REPARTO
Jason Statham, Ben Foster, Donald Sutherland, Tony Goldwyn, Mini Anden, Christa Campbell

Código:
General
Complete name                    : 3l.m3c4nic0.by.ataquero.rmvb
Format                           : RealMedia
File size                        : 303 MiB
Duration                         : 1h 32mn
Overall bit rate                 : 446 Kbps

Video
ID                               : 1
Format                           : RealVideo 4
Codec ID                         : RV40
Codec ID/Info                    : Based on AVC (H.264), Real Player 9
Duration                         : 1h 32mn
Bit rate                         : 382 Kbps
Width                            : 640 pixels
Height                           : 272 pixels
Display aspect ratio             : 2.35:1
Frame rate                       : 23.976 fps
Bits/(Pixel*Frame)               : 0.091
Stream size                      : 253 MiB (83%)

Audio
ID                               : 0
Format                           : Cooker
Codec ID                         : cook
Codec ID/Info                    : Based on G.722.1, Real Player 6
Duration                         : 1h 32mn
Bit rate                         : 64.1 Kbps
Channel(s)                       : 2 channels
Sampling rate                    : 44.1 KHz
Bit depth                        : 16 bits
Stream size                      : 42.5 MiB (14%)








Arthur Bishop (Jason Statham) es un asesino profesional de élite, con un estricto código y un talento único para eliminar limpiamente a sus víctimas. La muerte de su amigo y mentor Harry (Donald Sutherland) le obligará a replantearse sus métodos, sobre todo cuando Steve (Ben Foster), el hijo de Harry, le pida ayuda para saciar su sed de venganza. Bishop empieza a entrenar a Steve y a enseñarle sus letales técnicas, pero las mentiras y los engaños amenazan con convertir esta alianza en el mayor de sus errores. Remake del film protagonizado por Charles Bronson en 1972.






















Descargar Descargar El Mecánico (2011) DVDRip(Audio.Latino) 1Link Excelente Calidad Gratis Pelicula Gratis


25-may-2011
estefi_ponce
Premium User
Re: Descargar El Mecánico (2011) DVDRip(Audio.Latino) 1Link Excelente Calidad Gratis
resubida
25-may-2011
elvicky
White User
Re: Descargar El Mecánico (2011) DVDRip(Audio.Latino) 1Link Excelente Calidad Gratis
buena peli
27-may-2011
estefi_ponce
Premium User
Re: Descargar El Mecánico (2011) DVDRip(Audio.Latino) 1Link Excelente Calidad Gratis
excelente peli elvicky :P

Necesitás estar Registrado para dejar comentarios en la descarga Descargar El Mecánico (2011) DVDRip(Audio.Latino) 1Link Excelente Calidad Gratis

Información del Post

  • Puntos Puntos: 0 |
  • Visitas Visitas: 1386 |
  • Autor Publicado por: estefi_ponce |
  • Categoría: Películas Gratis