[Peliculas]Jesse Stone: Innocents Lost[DvdRIP][2011][1Link]


Descargar [Peliculas]Jesse Stone: Innocents Lost[DvdRIP][2011][1Link] Película Gratis 1 link por Mega y Mediafire



Argentina Warez » Descargas Gratis » Películas Gratis [Peliculas]Jesse Stone: Innocents Lost[DvdRIP][2011][1Link]
08-jun-2011
Game_Uploader
Premium User
[Peliculas]Jesse Stone: Innocents Lost[DvdRIP][2011][1Link]
[Peliculas]Jesse Stone: Innocents Lost[DvdRIP][2011][1Link]


Jesse, sin ser Jefe de la Fuerza de Policía de Paraíso se establece por su cuenta para resolver el asesinato de una joven que había ayudado antes.

Titulo: Jesse Stone: Innocents Lost
Idioma: Ingles con subtitulos en español dentro del rar
Formato: AVI
Calidad de imagen: Muy Buena

dijo:
General
Complete name : files/p-jes__Luke.avi
Format : AVI
Format/Info : Audio Video Interleave
File size : 757 MiB
Duration : 1h 27mn
Overall bit rate : 1 208 Kbps
Writing application : VirtualDubMod 1.5.10.2 (build 2540/release)
Writing library : VirtualDubMod build 2540/release

Video
ID : 0
Format : MPEG-4 Visual
Format profile : Advanced Simple@L5
Format settings, BVOP : Yes
Format settings, QPel : No
Format settings, GMC : No warppoints
Format settings, Matrix : Default (H.263)
Muxing mode : Packed bitstream
Codec ID : XVID
Codec ID/Hint : XviD
Duration : 1h 27mn
Bit rate : 1 065 Kbps
Width : 624 pixels
Height : 352 pixels
Display aspect ratio : 16:9
Frame rate : 23.976 fps
Color space : YUV
Chroma subsampling : 4:2:0
Bit depth : 8 bits
Scan type : Progressive
Bits/(Pixel*Frame) : 0.202
Stream size : 667 MiB (88%)
Writing library : XviD 1.2.1 (UTC 2008-12-04)

Audio
ID : 1
Format : MPEG Audio
Format version : Version 1
Format profile : Layer 3
Mode : Joint stereo
Codec ID : 55
Codec ID/Hint : MP3
Duration : 1h 27mn
Bit rate mode : Variable
Bit rate : 131 Kbps
Minimum bit rate : 32.0 Kbps
Channel(s) : 2 channels
Sampling rate : 48.0 KHz
Stream size : 81.8 MiB (11%)
Alignment : Aligned on interleaves
Interleave, duration : 24 ms (0.58 video frame)
Interleave, preload duration : 530 ms
Writing library : LAME3.98r
Encoding settings : -m j -V 4 -q 2 -lowpass 17.5 --vbr-new -b 32






http://www.wupload.com/file/12486783
o

http://www.uploadstation.com/file/xCZ5yHC


Aprende a descargar del Host del Momento Wupload, solo 10s de espera.

Descargar [Peliculas]Jesse Stone: Innocents Lost[DvdRIP][2011][1Link] Pelicula Gratis



Necesitás estar Registrado para dejar comentarios en la descarga [Peliculas]Jesse Stone: Innocents Lost[DvdRIP][2011][1Link]

Información del Post

  • Puntos Puntos: 0 |
  • Visitas Visitas: 521 |
  • Autor Publicado por: Game_Uploader |
  • Categoría: Películas Gratis