Clash Of Empires: Battle For Asia 2011 -DVDRip - Sub. Español


Descargar Clash Of Empires: Battle For Asia 2011 -DVDRip - Sub. Español Película Gratis 1 link



Argentina Warez » Descargas Gratis » Películas Gratis Clash Of Empires: Battle For Asia 2011 -DVDRip - Sub. Español
13-jun-2011
elvilkikiyo
King User
Clash Of Empires: Battle For Asia 2011 -DVDRip - Sub. Español




Clash Of Empires: Battle For Asia


DVDRip | Sub. Español | 796 MB

El poder de las dos grandes superpotencias del mundo antiguo chocan en un choque todopoderoso de la talla de los cuales nunca se han visto antes.
Agregado muestra de prueba de 5o MB correspondientes a los primeros 7 minutos de pelicula para que aprecies la calidad antes de bajarla.



Datos de la Pelicula

TÍTULO ORIGINAL: Hikayat Merong Mahawangsa (The Malay Chronicles: Bloodlines) (Clash Of Empires: Battle For Asia)
AÑO: 2011
DURACIÓN: 109 min.
PAÍS: Malasia
DIRECTOR: Yusry Kru
GUIÓN: Yusry Kru, Amir Hafizi
MÚSICA: Edry Abdul Halim
REPARTO: Stephen Rahman Hughes, Gavin Stenhouse, Jing Lusi, Craig Fong, Henrik Norman
PRODUCTORA: KRU Studios
GÉNERO: Aventuras. Acción | Cine épico

Info. Codificacion

Archivo: batalla.por.asia_by_almacervecera.avi
Tamaño: 833928431 bytes ( 795.30 MiB)
Duración: 01:49:10
avg.bitrate: 1019 kb / s
Audio: mp3, 48000 Hz, estéreo, 64 kb / s
Video: MPEG4, yuv420p, 640×376, 29.97 fps ( r )
Subido: by_almacervecera

General

Nombre completo: batalla.por.asia_by_almacervecera.avi
Formato: AVI
Formato / Info: Audio Video Interleave
Tamaño del archivo: 795 MiB de
Duración: 1h 49mn
Tasa de bits total: 1 018 Kbps
Nombre de la película: avi.Title1.DVDRip
Aplicación de la escritura: Lavf52.33.0
Original forma de código fuente / Nombre: avi

Video

ID: 0
Formato: MPEG – 4 Visual
Formato del perfil: Simple @ L3
Ajustes del formato, BVOP: No
La configuración del formato, Qpel: No
La configuración del formato, GMC: No warppoints
La configuración del formato, Matrix: Default ( H.263 )
ID Códec: XVID
ID Codec / Pista: XviD
Duración: 1h 49mn
Velocidad de bits: 941 Kbps
Ancho: 640 pixeles
Altura: 376 píxeles
Mostrar la relación de aspecto 16:9
Velocidad de cuadros: 29.970 fps
Espacio de color: YUV
Submuestreo Chroma: 4:2:0
La profundidad de bits: 8 bits
Tipo de exploración: Progresivo
Bits / ( Pixel * cuadro ): 0.130
Stream size: 734 MiB ( 92 % )
Escribir la colección: XviD 1.2.1 ( UTC 04/12/2008 )

Audio

ID: 1
Formato: MPEG Audio
Formato de la versión: Versión 1
Formato del perfil: Layer 3
Modo: Joint Stereo
ID Códec: 55
ID Codec / Pista: MP3
Duración: 1h 49mn
Poco el modo de tasa: Constante
Velocidad de grabación: 64.0 Kbps
Canal ( s ): 2 canales
Frecuencia de muestreo: 48,0 KHz
Stream size: 50.0 MiB ( 6 % )
Alineación: Alineados sobre interpola
Intercalar, duración: 24 ms ( 0,72 fotograma de vídeo )
Intercalar, precarga duración: 24 ms





VARIOS SERVIDORES




FreakShare - Easy One-Click File Hosting


MIRROR


Free File Hosting, Online Storage &amp File Upload with FileServe


MIRROR


Download batalla.por.asia.avi - BitShare.com - Free File Sharing and Storage


MIRROR


Download batalla.por.asia.avi for free on uploading.com


MIRROR


Download batalla.por.asia.avi for free on Filesonic.com


MIRROR


Get batalla.por.asia.avi on Wupload.com


MIRROR


Uploadstation - Your #1 Free File Hosting Service Made Simple

Descargar Clash Of Empires: Battle For Asia 2011 -DVDRip - Sub. Español Pelicula Gratis



Necesitás estar Registrado para dejar comentarios en Clash Of Empires: Battle For Asia 2011 -DVDRip - Sub. Español

Información del Post

  • Puntos Puntos: 0 |
  • Visitas Visitas: 544 |
  • Autor Publicado por: elvilkikiyo |
  • Categoría: Películas Gratis