Sucker Punch 2011 BluRay 720p Mkv Español(España)MIC/Ingles(Dts) Sub Español


Descargar Sucker Punch 2011 BluRay 720p Mkv Español(España)MIC/Ingles(Dts) Sub Español Película Gratis 1 link por Mega y Mediafire



Argentina Warez » Descargas Gratis » Películas Gratis Sucker Punch 2011 BluRay 720p Mkv Español(España)MIC/Ingles(Dts) Sub Español
18-jun-2011
cadagoto
Premium User
Sucker Punch 2011 BluRay 720p Mkv Español(España)MIC/Ingles(Dts) Sub Español





Sucker Punch 2011 BluRay 720p Mkv Español(España)MIC/Ingles(Dts) Sub Español









TÍTULO ORIGINAL: Sucker Punch
AÑO: 2011
GENERO: Acción/Fantástico
REPARTO: Emily Browning (Babydoll), Abbie Cornish (Sweet Pea), Jena Malone (Rocket), Vanessa Hudgens (Blondie), Jamie Chung (Amber), Carla Gugino (Dra. Vera Gorski), Jon Hamm (Gran Apostador/doctor), Scott Glenn (Hombre Sabio), Oscar Isaac (Blue Jones). Guion: Zack Snyder y Steve Shibuya; basado en un argumento de Zack Snyder.




Código:
General
Complete name :     files/Sucker.Punch.BDRip.720p.Dual.cadagoto.mkv
Format :     Matroska
File size :     4.55 GiB
Duration :     1h 49mn
Overall bit rate :     5 939 Kbps
Encoded date :     UTC 2011-06-18 03:46:37
Writing application :     mkvmerge v4.4.0 ('Die Wiederkehr') built on Nov 7 2010 22:17:07
Writing library :     libebml v1.0.0 + libmatroska v1.0.0

Video
ID :     1
Format :     AVC
Format/Info :     Advanced Video Codec
Format profile :     High@L4.1
Format settings, CABAC :     Yes
Format settings, ReFrames :     5 frames
Muxing mode :     Container profile=Unknown@4.1
Codec ID :     V_MPEG4/ISO/AVC
Duration :     1h 49mn
Bit rate :     4 177 Kbps
Width :     1 280 pixels
Height :     528 pixels
Display aspect ratio :     2.40:1
Frame rate :     23.976 fps
Color space :     YUV
Chroma subsampling :     4:2:0
Bit depth :     8 bits
Scan type :     Progressive
Bits/(Pixel*Frame) :     0.258
Stream size :     3.11 GiB (68%)

Audio #1
ID :     2
Format :     MPEG Audio
Format version :     Version 1
Format profile :     Layer 3
Mode :     Joint stereo
Codec ID :     A_MPEG/L3
Codec ID/Hint :     MP3
Duration :     1h 49mn
Bit rate mode :     Constant
Bit rate :     256 Kbps
Channel(s) :     2 channels
Sampling rate :     48.0 KHz
Stream size :     201 MiB (4%)

Audio #2
ID :     3
Format :     DTS
Format/Info :     Digital Theater Systems
Codec ID :     A_DTS
Duration :     1h 49mn
Bit rate mode :     Constant
Bit rate :     1 510 Kbps
Channel(s) :     6 channels
Channel positions :     Front: L C R, Side: L R, LFE
Sampling rate :     48.0 KHz
Bit depth :     24 bits
Stream size :     1.16 GiB (25%)
Title :     English

Text #1
ID :     4
Format :     SSA
Codec ID :     S_TEXT/SSA
Codec ID/Info :     Sub Station Alpha
Title :     Forzados.
Language :     Spanish

Text #2
ID :     5
Format :     UTF-8
Codec ID :     S_TEXT/UTF8
Codec ID/Info :     UTF-8 Plain Text
Title :     Completos
Language :     Spanish

“Sucker punch” relata la historia de una joven que es internada en una institución mental, puesto que su padrastro está empeñado en que sea sometida a una lobotomía. Junto a sus compañeras de centro, crea una realidad alternativa que le permite planear su fuga del lugar.










¡Importante! Para Descargar De Linksave Deben Tener Abierto Jdownloader,Tener Instalado El Complemento Click 'n Load,
Y hacer (Click,pinchar)En Esta Imagen !






Los Links Son Intercambiables , Puedes Alternar La Descarga De Cada Host!

Fileserve Links De 800 Mb!





Download misc Sucker.Punch.BDRip.720p.Dual.cadagoto



BitShare Links De 800 Mb Intercambiables!




Download misc Sucker.Punch.BDRip.720p.Dual.cadagoto



.
CadagotoHD





.
Si Los Links No Estan On-Line,avisame Asi Tratare De Reponerlos!

Aportar Toma Buen Tiempo,Resubir Mucho Mas ,Agradecer No Cuesta Nada !






Descargar Sucker Punch 2011 BluRay 720p Mkv Español(España)MIC/Ingles(Dts) Sub Español Pelicula Gratis



Necesitás estar Registrado para dejar comentarios en la descarga Sucker Punch 2011 BluRay 720p Mkv Español(España)MIC/Ingles(Dts) Sub Español

Información del Post