[Peliculas]Yes Or No[DvdRIP][2011][1Link]


Descargar [Peliculas]Yes Or No[DvdRIP][2011][1Link] Película Gratis 1 link por Mega y Mediafire



Argentina Warez » Descargas Gratis » Películas Gratis [Peliculas]Yes Or No[DvdRIP][2011][1Link]
05-jul-2011
Game_Uploader
Premium User
[Peliculas]Yes Or No[DvdRIP][2011][1Link]
[Peliculas]Yes Or No[DvdRIP][2011][1Link]


Pie es una universitaria que no podía soportar tener una compañera de habitación lesbiana, así que decide cambiar a un nuevo dormitorio. Escandalizada, descubre que su nueva compañera Kim parece ser una tom (lesbiana que parece un chico, tomboy). Aunque Kim niega que sea una tom, Pie se niega a ser amigable con ella al principio pero finalmente se convierten en muy buenas amigas. Pero Kim empieza a sentir que realmente está cambiando convirtiéndose en tom y a gustarle Pie más que como una amiga. Las cosas no serán fáciles para Kim. A parte de una egocéntrica lesbiana llamada Jane que intenta ligar con ella, Kim aprenderá que mucha gente aún es reacia con los toms, especialmente la madre de Pie y el amigo de la infancia de Pie llamado Van que intenta conseguir el corazón de esta. Pero Kim también contará con el apoyo de su padre y una vieja amiga, una mujer llamada Inn.

Titulo: Yes Or No
Idioma: Tailandes con subtitulos en español pegados al video
Formato: AVI
Calidad de imagen: Muy Buena

dijo:
General
Complete name : files/p-yes__Luke.avi
Format : AVI
Format/Info : Audio Video Interleave
File size : 899 MiB
Duration : 1h 46mn
Overall bit rate : 1 180 Kbps
Writing application : MEncoder 1.0rc2-4.2.4
Writing library : MPlayer

Video
ID : 0
Format : MPEG-4 Visual
Format profile : Simple@L1
Format settings, BVOP : No
Format settings, QPel : No
Format settings, GMC : No warppoints
Format settings, Matrix : Default (H.263)
Codec ID : DX50
Codec ID/Hint : DivX 5
Duration : 1h 46mn
Bit rate : 1 088 Kbps
Width : 624 pixels
Height : 352 pixels
Display aspect ratio : 16:9
Frame rate : 25.000 fps
Color space : YUV
Chroma subsampling : 4:2:0
Bit depth : 8 bits
Scan type : Progressive
Bits/(Pixel*Frame) : 0.198
Stream size : 828 MiB (92%)
Writing library : Lavc51.44.0

Audio
ID : 1
Format : MPEG Audio
Format version : Version 1
Format profile : Layer 3
Codec ID : 55
Codec ID/Hint : MP3
Duration : 1h 46mn
Bit rate mode : Constant
Bit rate : 80.0 Kbps
Channel(s) : 2 channels
Sampling rate : 44.1 KHz
Stream size : 60.9 MiB (7%)
Alignment : Aligned on interleaves
Interleave, duration : 26 ms (0.65 video frame)
Interleave, preload duration : 522 ms
Writing library : LAME3.98


Descargar [Peliculas]Yes Or No[DvdRIP][2011][1Link] Pelicula Gratis


21-jul-2011
jenyufar
New User
Re: [Peliculas]Yes Or No[DvdRIP][2011][1Link]
caramba!!! y cómo descargo la película gratis? me lo pueden explicar?por favor...
28-ene-2012
martica_meg
New User
Re: [Peliculas]Yes Or No[DvdRIP][2011][1Link]
podrias resubirla y avisar porfa tubb81@gmail.com gracias
06-ago-2012
sexydeportivo
New User
Re: [Peliculas]Yes Or No[DvdRIP][2011][1Link]
como puedo ver la pelicula o descarlaaaaaaaaaaa
19-ago-2012
qeaii
New User
Re: [Peliculas]Yes Or No[DvdRIP][2011][1Link]
subela de nuevo porfavooooooooooooooooooooooor!!! T_T
23-ene-2014
ielizaabeeth
New User
Re: [Peliculas]Yes Or No[DvdRIP][2011][1Link]
y como puedo descargala?
25-ene-2014
valeguz
New User
Re: [Peliculas]Yes Or No[DvdRIP][2011][1Link]
por favor diganme como descargarla :,( no puedo repondan porfa
25-ene-2014
valeguz
New User
Re: [Peliculas]Yes Or No[DvdRIP][2011][1Link]
Iniciado por ielizaabeeth
y como puedo descargala?
tambien quiero saber como

Necesitás estar Registrado para dejar comentarios en la descarga [Peliculas]Yes Or No[DvdRIP][2011][1Link]

Información del Post

  • Puntos Puntos: 0 |
  • Visitas Visitas: 6338 |
  • Autor Publicado por: Game_Uploader |
  • Categoría: Películas Gratis