Perras (2011) DVDRip-XviD Español Latino


Descargar Perras (2011) DVDRip-XviD Español Latino Película Gratis 1 link por Mega y Mediafire



Argentina Warez » Descargas Gratis » Películas Gratis Perras (2011) DVDRip-XviD Español Latino
17-jul-2011
FreakShare89
Top User
Perras (2011) DVDRip-XviD Español Latino






Perras es un thriller, una montaña rusa emocional que revela la ética, la estética y la erótica de diez jóvenes sospechosas de una falta imperdonable. A través de la historia de la más bonita, de la coja que quiere su fiesta de quince años, de la chica que seducía senadores, de la niña que medía la tarde por rosas, de la ciega que lo ve todo, de Iris que sólo quiere ser bonita, de la que ya corrieron de muchas escuelas, de la niña que se escapaba por su televisioncita de colores, de Frida que cree que dios está detrás de una computadora y de María del Mar que sabe que la verdad nunca se sabe.





TÍTULO ORIGINAL: Perras
AÑO: 2011
DURACIÓN: 100 min.
PAÍS: México
DIRECTOR: Guillermo Ríos
GUIÓN: Guillermo Ríos
MÚSICA: Daniel Hidalgo
FOTOGRAFÍA: Juan Bernardo M. Sánchez Mejía
REPARTO: Claudia Zepeda, Scarlet Dergal, Karen de la Hoya, Steph Boumelcroud, Kariam Catro, Andrea Pedrero, Eva Luna Marenco, Denis Montes, Natalia Zurita, Alenka Ríos, Galilea Montijo
PRODUCTORA: Pelearan Por Diez Rounds Films / Global Films / FIDECINE
GÉNERO: Thriller. Drama. Romance







DVDRip | XviD | 702 MB | Español Latino | Thriller | 2011

Video
ID : 0
Format : MPEG-4 Visual
Format profile : Advanced Simple@L5
Format settings, BVOP : 2
Format settings, QPel : No
Format settings, GMC : No warppoints
Format settings, Matrix : Default (H.263)
Codec ID : XVID
Codec ID/Hint : XviD
Duration : 1h 36mn
Bit rate : 880 Kbps
Width : 640 pixels
Height : 256 pixels
Display aspect ratio : 2.500
Frame rate : 23.976 fps
Color space : YUV
Chroma subsampling : 4:2:0
Bit depth : 8 bits
Scan type : Progressive
Compression mode : Lossy
Bits/(Pixel*Frame) : 0.224
Stream size : 607 MiB (86%)
Writing library : XviD 1.2.1 (UTC 2008-12-04)

Audio
ID : 1
Format : MPEG Audio
Format version : Version 1
Format profile : Layer 3
Mode : Joint stereo
Mode extension : MS Stereo
Codec ID : 55
Codec ID/Hint : MP3
Duration : 1h 36mn
Bit rate mode : Constant
Bit rate : 128 Kbps
Channel(s) : 2 channels
Sampling rate : 48.0 KHz
Compression mode : Lossy
Stream size : 88.4 MiB (13%)
Alignment : Aligned on interleaves
Interleave, duration : 42 ms (1.00 video frame)
Interleave, preload duration : 504 ms
Writing library : LAME3.98r
Encoding settings : -m j -V 4 -q 2 -lowpass 17 -b 128
















1 Link

Código:
http://bitshare.com/files/9v6hdeoi/Perras.DVDrip_Michel_Vai.avi.html
http://freakshare.com/files/pvl9ldga/Perras.DVDrip_Michel_Vai.avi.html
http://www.fileserve.com/file/mPq6v9R
http://www.uploadstation.com/file/aZNt46y
UploadStation

Código:
http://www.uploadstation.com/file/hkeJqhN
http://www.uploadstation.com/file/TZSge6Q
FileServe

Código:
http://www.fileserve.com/file/m9p7FZ9
http://www.fileserve.com/file/s8uUtvC
FreakShare

Código:
http://freakshare.com/files/e79873r4/Perras.DVDrip_Michel_Vai.part2.rar.html
http://freakshare.com/files/wv2zjj4g/Perras.DVDrip_Michel_Vai.part1.rar.html
BitShare

Código:
http://bitshare.com/files/25n5e1fi/Perras.DVDrip_Michel_Vai.part1.rar.html
http://bitshare.com/files/hjboasw1/Perras.DVDrip_Michel_Vai.part2.rar.html

Descargar Perras (2011) DVDRip-XviD Español Latino Pelicula Gratis



Necesitás estar Registrado para dejar comentarios en Perras (2011) DVDRip-XviD Español Latino

Información del Post

  • Puntos Puntos: 0 |
  • Visitas Visitas: 745 |
  • Autor Publicado por: FreakShare89 |
  • Categoría: Películas Gratis