Calles sangrientas (2009) [HDrip (AC3)] [Espanol] [Accion | Drama]


Descargar Calles sangrientas (2009) [HDrip (AC3)] [Espanol] [Accion | Drama] Película Gratis 1 link



Argentina Warez » Descargas Gratis » Películas Gratis Calles sangrientas (2009) [HDrip (AC3)] [Espanol] [Accion | Drama]
22-jul-2011
jusnaturel
Premium User
Calles sangrientas (2009) [HDrip (AC3)] [Espanol] [Accion | Drama]



Calles sangrientas (2009) [HDrip (AC3)] [Espanol] [Accion | Drama]



TÍTULO ORIGINAL Streets of Blood
AÑO 2009
DURACIÓN 95 min.
DIRECTOR Charles Winkler
GUIÓN Eugene Hess
MÚSICA Stephen Endelman
FOTOGRAFÍA Roy H. Wagner
PRODUCTORA Millennium Films / Nu Image Films
GÉNERO Accion.
IMDb: http://www.imdb.com/title/tt1203523/



El companero del policia Andy Devereaux (Val Kilmer) ha muerto durante el huracan Katrina, pero tiempo despues descubre que quiza haya sido asesinado. Tratara de descubrir la verdad junto a su nuevo companero Stan (Curtis '50 Cent' Jackson) y la psiquiatra de la policia, Nina Ferraro (Sharon Stone).



Código:
Contenedor: Avi
Codec: Xvid
Idioma: Espanol Espana 
Subtitulos: No
Tamano: 1.76 Gb
Calidad video: Hdrip
Formato audio: Ac3
Uploader: JusNaturel
Media Info!
Código:
Format : AVI 
Format/Info : Audio Video Interleave 
File size : 1.76 GiB 
Duration : 1h 34mn 
Overall bit rate : 2 654 Kbps 
Writing application : VirtualDubMod 1.5.10.2 (build 2540/release) 
Writing library : VirtualDubMod build 2540/release 


Video

Format : xvid 
Codec ID : xvid
Duration : 1h 34mn
Bit rate : 2 197 Kbps 
Width : 720 pixels
Height : 304 pixels
Display aspect ratio : 2.35:1
Frame rate : 23.976 fps 
Bits/(Pixel*Frame) : 0.419
Stream size : 1.46 GiB (83%) 

Audio

ID : 1
Format : AC-3
Format/Info : Audio Coding 3
Mode extension : CM (complete main)
Codec ID : 2000 Duration : 1h 34mn 
Bit rate mode : Constant 
Bit rate : 448 Kbps
Channel(s) : 6 channels 
Channel positions : Front: L C R, Side: L R, LFE 
Sampling rate : 48.0 KHz 
Stream size : 304 MiB (17%) 
Alignment : Split accross interleaves 
Interleave, duration : 42 ms (1.00 video frame) 
Interleave, preload duration : 500 ms












Código:
http://www.wupload.com/folder/227710

Descargar Calles sangrientas (2009) [HDrip (AC3)] [Espanol] [Accion | Drama] Pelicula Gratis



Necesitás estar Registrado para dejar comentarios en Calles sangrientas (2009) [HDrip (AC3)] [Espanol] [Accion | Drama]

Información del Post

  • Puntos Puntos: 0 |
  • Visitas Visitas: 212 |
  • Autor Publicado por: jusnaturel |
  • Categoría: Películas Gratis