Argentina Warez » Descargas Gratis » Películas Gratis Kokuhaku (Confessions)2010 BDRip 1080p Mkv Castellano AC3/Japones;DTS Sub Español Thriller
30-jul-2011
cadagoto
Premium User
Kokuhaku (Confessions)2010 BDRip 1080p Mkv Castellano AC3/Japones;DTS Sub Español Thriller



Kokuhaku (Confessions)2010 BDRip 1080p Mkv Castellano AC3/Japones;DTS Sub Español Thriller







TÍTULO ORIGINAL Kokuhaku (Confessions)
AÑO 2010
DURACIÓN 106 min.
PAÍS [Japón]
DIRECTOR Tetsuya Nakashima
GUIÓN Tetsuya Nakashima (Novela: Kanae Minato)
MÚSICA Toyohiko Kanebashi, Boris, Radiohead
FOTOGRAFÍA Shoichi Ato, Atsushi Ozawa
REPARTO Takako Matsu, Masaki Okada, Yoshino Kimura, Yukito Nishii, Kaoru Fujiwara, Makiya Yamaguchi, Soichiro Suzuki, Kinuwo Yamada
PRODUCTORA DesperaDo / Hakuhodo DY Media Partners / Licri / Nippon Shuppan Hanbai (Nippan) K.K. / Sony Music Entertainment / Toho Company / Yahoo Japan
PREMIOS 2011: Academia japonesa: Mejor película, director, guión, edición y 7 nominaciones
GÉNERO Thriller. Drama. Intriga | Thriller psicológico. Drama psicológico. Colegios & Universidad


Código:
Confessions Kokuhaku BDRip 1080p Castellano.CadagotoHD.mkv
Format : Matroska
File size : 9.41 GiB
Duration : 1h 46mn
Overall bit rate : 12.6 Mbps
Encoded date : UTC 2011-07-29 00:44:49
Writing application : mkvmerge v4.5.0 ('Speed of Light') creado el Feb 1 2011 02:10:32
Writing library : libebml v1.2.0 + libmatroska v1.1.0

Video
ID : 1
Format : AVC
Format/Info : Advanced Video Codec
Format profile : High@L4.1
Format settings, CABAC : Yes
Format settings, ReFrames : 12 frames
Codec ID : V_MPEG4/ISO/AVC
Duration : 1h 46mn
Bit rate : 10.5 Mbps
Width : 1 920 pixels
Height : 1 080 pixels
Display aspect ratio : 16:9
Frame rate : 23.976 fps
Color space : YUV
Chroma subsampling : 4:2:0
Bit depth : 8 bits
Scan type : Progressive
Bits/(Pixel*Frame) : 0.211
Stream size : 7.62 GiB (81%)
Writing library : x264 core 68 r1183M f21daff
Language : English
Subido Por ..............:CadagotoHD

Audio #1
ID : 2
Format : DTS
Format/Info : Digital Theater Systems
Codec ID : A_DTS
Duration : 1h 46mn
Bit rate mode : Constant
Bit rate : 1 510 Kbps
Channel(s) : 6 channels
Channel positions : Front: L C R, Side: L R, LFE
Sampling rate : 48.0 KHz
Bit depth : 16 bits
Compression mode : Lossy
Stream size : 1.12 GiB (12%)
Language : Japanese

Audio #2
ID : 3
Format : AC-3
Format/Info : Audio Coding 3
Mode extension : CM (complete main)
Codec ID : A_AC3
Duration : 1h 46mn
Bit rate mode : Constant
Bit rate : 640 Kbps
Channel(s) : 6 channels
Channel positions : Front: L C R, Side: L R, LFE
Sampling rate : 48.0 KHz
Bit depth : 16 bits
Compression mode : Lossy
Stream size : 488 MiB (5%)
Language : Spanish

Text
ID : 4
Format : UTF-8
Codec ID : S_TEXT/UTF8
Codec ID/Info : UTF-8 Plain Text
Language : Spanish
En un instituto, el último día de clase, una profesora se despide de sus alumnos y, además de anunciarles que deja la escuela, les confiesa que su hija de cuatro años que, aparentemente, murió ahogada en la piscina de la escuela, fue en realidad asesinada por dos estudiantes de esa misma clase. También les hace saber que ya ha puesto en marcha su venganza contra ellos.









¡Importante! Para Descargar De Linksave Deben Tener Abierto Jdownloader,Tener Instalado El Complemento Click 'n Load,
Y hacer (Click,pinchar)En Esta Imagen Cuando Entren A La Pagina LinkSave.In!.. O Bajate el DLC!



Archivos De 800 MB Intercambiables!



Descarga Aqui
Download misc Confessions.1080p.Castellano.CadagotoHD





.
Si Los Links No Estan On-Line,avisame Asi Tratare De Reponerlos!

Aportar Toma Buen Tiempo,Resubir Mucho Mas ,Agradecer No Cuesta Nada !






Descargar Kokuhaku (Confessions)2010 BDRip 1080p Mkv Castellano AC3/Japones;DTS Sub Español Thriller Pelicula Gratis



Necesitás estar Registrado para dejar comentarios en Kokuhaku (Confessions)2010 BDRip 1080p Mkv Castellano AC3/Japones;DTS Sub Español Thriller

Información del Post