G. I. JOE [Español latino][avi][1 link] [FLS-FS-UP][Exelente calidad]


Descargar G. I. JOE [Español latino][avi][1 link] [FLS-FS-UP][Exelente calidad] Película Gratis 1 link por Mega y Mediafire



Argentina Warez » Descargas Gratis » Películas Gratis G. I. JOE [Español latino][avi][1 link] [FLS-FS-UP][Exelente calidad]
01-ago-2011
maquinajesus
Premier User
G. I. JOE [Español latino][avi][1 link] [FLS-FS-UP][Exelente calidad]






  1. General
  2. Complete name : /disco2/g i joe.avi
  3. Format : AVI
  4. Format/Info : Audio Video Interleave
  5. File size : 806 MiB
  6. Duration : 1h 57mn
  7. Overall bit rate : 956 Kbps
  8. Movie name : YeZo_GIJOE
  9. Director : By yezo
  10. Writing application : Lavf52.33.0
  11. Original source form/Name : ITL20_GIJOE
  12. Video
  13. ID : 0
  14. Format : MPEG-4 Visual
  15. Format profile : Simple@L3
  16. Format settings, BVOP : No
  17. Format settings, QPel : No
  18. Format settings, GMC : No warppoints
  19. Format settings, Matrix : Default (H.263)
  20. Codec ID : XVID
  21. Codec ID/Hint : XviD
  22. Duration : 1h 57mn
  23. Bit rate : 847 Kbps
  24. Width : 656 pixels
  25. Height : 274 pixels
  26. Display aspect ratio : 2.35:1
  27. Frame rate : 23.976 fps
  28. Color space : YUV
  29. Chroma subsampling : 4:2:0
  30. Bit depth : 8 bits
  31. Scan type : Progressive
  32. Compression mode : Lossy
  33. Bits/(Pixel*Frame) : 0.197
  34. Stream size : 715 MiB (89%)
  35. Writing library : XviD 1.2.1 (UTC 2008-12-04)
  36. Audio
  37. ID : 1
  38. Format : MPEG Audio
  39. Format version : Version 1
  40. Format profile : Layer 3
  41. Mode : Joint stereo
  42. Mode extension : MS Stereo
  43. Codec ID : 55
  44. Codec ID/Hint : MP3
  45. Duration : 1h 57mn
  46. Bit rate mode : Constant
  47. Bit rate : 96.0 Kbps
  48. Channel(s) : 2 channels
  49. Sampling rate : 48.0 KHz
  50. Compression mode : Lossy
  51. Stream size : 81.0 MiB (10%)
  52. Alignment : Aligned on interleaves
  53. Interleave, duration : 24 ms (0.58 video frame)
  54. Writing library : LAME3.98.2
DESCARGAR:

http://uploading.com/files/2f4c9dcb/g_i_joe.avi/

O

http://freakshare.com/files/43w6hauu/g_i_joe.avi.html

O

http://www.fileserve.com/file/DhPB859



: geek::j imlad:





Descargar G. I. JOE [Español latino][avi][1 link] [FLS-FS-UP][Exelente calidad] Pelicula Gratis


06-feb-2012
troll moretti
White User
Re: G. I. JOE [Español latino][avi][1 link] [FLS-FS-UP][Exelente calidad]
descargando gracias
15-abr-2012
silencio731
White User
Re: G. I. JOE [Español latino][avi][1 link] [FLS-FS-UP][Exelente calidad]
gracias por tu aporte amigo la estaba buscando hace semanas ya tienes +10 de mi parte
22-jul-2012
hanner78
Gold User
Re: G. I. JOE [Español latino][avi][1 link] [FLS-FS-UP][Exelente calidad]
gracias por el aporte
27-oct-2012
kerevin
White User
Re: G. I. JOE [Español latino][avi][1 link] [FLS-FS-UP][Exelente calidad]
graciasss
27-oct-2012
xico66
Platinum User
Re: G. I. JOE [Español latino][avi][1 link] [FLS-FS-UP][Exelente calidad]
Gracias
28-oct-2012
ioivaaannn
Premier User
Re: G. I. JOE [Español latino][avi][1 link] [FLS-FS-UP][Exelente calidad]
Gracias
08-nov-2012
chencha10
White User
Re: G. I. JOE [Español latino][avi][1 link] [FLS-FS-UP][Exelente calidad]
Gracias! Very good!
02-abr-2013
LAZARIUXINC
New User
Re: G. I. JOE [Español latino][avi][1 link] [FLS-FS-UP][Exelente calidad]
gracias!!!
02-abr-2013
RSaucedo
Top User
Re: G. I. JOE [Español latino][avi][1 link] [FLS-FS-UP][Exelente calidad]
Gracias, buen aporte.

Necesitás estar Registrado para dejar comentarios en la descarga G. I. JOE [Español latino][avi][1 link] [FLS-FS-UP][Exelente calidad]

Información del Post

  • Puntos Puntos: 0 |
  • Visitas Visitas: 17744 |
  • Autor Publicado por: maquinajesus |
  • Categoría: Películas Gratis