Argentina Warez » Descargas Gratis » Películas Gratis Fuerza Tactica 2011 Dvdrip Subtitulada [WU-UP-US]
02-ago-2011
explo1515
Lead User
Fuerza Tactica 2011 Dvdrip Subtitulada [WU-UP-US]
Fuerza Tactica 2011 Dvdrip Subtitulada [WU-UP-US]





Titulo Original: Tactical Force
GENERO: Acción
PAIS: Estados Unidos
DURACION: 95 Minutos
AÑO: 2011




Un ejercicio de entrenamiento para el equipo SWAT del LAPD va terriblemente mal cuando se encuentran enfrentados con dos bandas rivales al mismo tiempo que quedan atrapados en un hangar abandonado, armados con nada más que armas blancas.



Video
ID : 0
Format : MPEG-4 Visual
Format profile : Simple@L3
Format settings, BVOP : No
Format settings, QPel : No
Format settings, GMC : No warppoints
Format settings, Matrix : Default (H.263)
Codec ID : XVID
Codec ID/Hint : XviD
Duration : 1h 28mn
Bit rate : 1 200 Kbps
Width : 640 pixels
Height : 360 pixels
Display aspect ratio : 16:9
Frame rate : 29.970 fps
Resolution : 8 bits
Colorimetry : 4:2:0
Scan type : Progressive
Bits/(Pixel*Frame) : 0.174
Stream size : 758 MiB (89%)


Audio
ID : 1
Format : MPEG Audio
Format version : Version 1
Format profile : Layer 3
Mode : Joint stereo
Format_Settings_ModeExtension : MS Stereo
Codec ID : 55
Codec ID/Hint : MP3
Duration : 1h 28mn
Bit rate mode : Constant
Bit rate : 128 Kbps
Channel(s) : 2 channels
Sampling rate : 44.1 KHz
Stream size : 80.9 MiB (10%)
Alignment : Aligned on interleaves
Interleave, duration : 26 ms (0.78 video frame)
Writing library : LAME3.97











LINK INTERCAMBIABLES DE 400MB


Código:
 http://www.wupload.com/file/75102123
  http://www.wupload.com/file/75105300
  http://www.wupload.com/file/75104613



Código:
  http://ul.to/5687zj4d/F-T-RIPSUB.theone1515.part1.rar
  http://ul.to/hjtq329f/F-T-RIPSUB.theone1515.part2.rar
  http://ul.to/snrhdsi3/F-T-RIPSUB.theone1515.part3.rar



Código:
 http://www.uploadstation.com/file/ub8sR2c
  http://www.uploadstation.com/file/WmpaJSY
  http://www.uploadstation.com/file/AtbrfJx



Descargar Fuerza Tactica 2011 Dvdrip Subtitulada [WU-UP-US] Pelicula Gratis



Necesitás estar Registrado para dejar comentarios en Fuerza Tactica 2011 Dvdrip Subtitulada [WU-UP-US]

Información del Post

  • Puntos Puntos: 0 |
  • Visitas Visitas: 802 |
  • Autor Publicado por: explo1515 |
  • Categoría: Películas Gratis