El Señor de las Ilusiones [HDrip][Castellano][Terror][1995][WU]


Descargar El Señor de las Ilusiones [HDrip][Castellano][Terror][1995][WU] Película Gratis 1 link por Mega y Mediafire



Argentina Warez » Descargas Gratis » Películas Gratis El Señor de las Ilusiones [HDrip][Castellano][Terror][1995][WU]
09-ago-2011
flakemo
Baneado ;(
El Señor de las Ilusiones [HDrip][Castellano][Terror][1995][WU]






TÍTULO ORIGINAL Clive Barker's Lord of Illusions
AÑO
1995
DURACIÓN
115 min. Trailers/Vídeos
PAÍS
[Estados Unidos]
DIRECTOR Clive Barker
GUIÓN Clive Barker
MÚSICA Simon Boswell
FOTOGRAFÍA Ronn Schmidt
REPARTO Scott Bakula, Kevin J. O'Connor, Famke Janssen, Vincent Schiavelli, Barry Sherman, Sheila Tousey, Joel Swetow
PRODUCTORA Seraphim Films
GÉNERO Fantástico. Terror. Thriller



SINOPSIS Hace algún tiempo, miembros de una secta traicionaron a su líder, un mago de gran poder. Asesinado por sus fieles, prometió volver para vengarse. En la actualidad, Harry D'Amour, un detective privado, lleva a cabo una investigación de rutina en Los Ángeles. Allí se encuentra con un poderoso e intrigante actor cuyas sorprendentes y misteriosas actuaciones llenas de suspense y misticismo cautivan al mundo. Pero, ¿son realmente actuaciones? Cuando el mundo de la magia se empieza a ver salpicado de extraños asesinatos, Harry empieza a sospechar que, tras el exitoso personaje, se encuentra algo oculto que proviene de fuerzas del más allá... (FILMAFFINITY)




Media Info:

General
Complete name : files/Ilusiones.eVILSEGA.avi
Format : AVI
Format/Info : Audio Video Interleave
Format profile : OpenDML
File size : 3.36 GiB
Duration : 2h 1mn
Overall bit rate : 3 976 Kbps
Writing application : VirtualDubMod 1.5.10.2 (build 2542/release)
Writing library : VirtualDubMod build 2542/release

Video
ID : 0
Format : MPEG-4 Visual
Format profile : Advanced Simple@L5
Format settings, BVOP : 2
Format settings, QPel : No
Format settings, GMC : No warppoints
Format settings, Matrix : Default (H.263)
Codec ID : XVID
Codec ID/Hint : XviD
Duration : 2h 1mn
Bit rate : 3 040 Kbps
Width : 720 pixels
Height : 384 pixels
Display aspect ratio : 1.875
Frame rate : 29.970 fps
Color space : YUV
Chroma subsampling : 4:2:0
Bit depth : 8 bits
Scan type : Progressive
Compression mode : Lossy
Bits/(Pixel*Frame) : 0.367
Stream size : 2.57 GiB (76%)
Writing library : XviD 1.1.2 (UTC 2006-11-01)

Audio #1
ID : 1
Format : AC-3
Format/Info : Audio Coding 3
Mode extension : CM (complete main)
Codec ID : 2000
Duration : 2h 1mn
Bit rate mode : Constant
Bit rate : 384 Kbps
Channel(s) : 2 channels
Channel positions : Front: L R
Sampling rate : 48.0 KHz
Bit depth : 16 bits
Compression mode : Lossy
Stream size : 333 MiB (10%)
Alignment : Split accross interleaves

Audio #2
ID : 2
Format : AC-3
Format/Info : Audio Coding 3
Mode extension : CM (complete main)
Codec ID : 2000
Duration : 2h 1mn
Bit rate mode : Constant
Bit rate : 384 Kbps
Channel(s) : 6 channels
Channel positions : Front: L C R, Side: L R, LFE
Sampling rate : 48.0 KHz
Bit depth : 16 bits
Compression mode : Lossy
Stream size : 333 MiB (10%)
Alignment : Split accross interleaves











http://www.wupload.com/file/85836653
http://www.wupload.com/file/85714995
http://www.wupload.com/file/85714726
http://www.wupload.com/file/85711107
http://www.wupload.com/file/85711087



Descargar El Señor de las Ilusiones [HDrip][Castellano][Terror][1995][WU] Pelicula Gratis



Necesitás estar Registrado para dejar comentarios en la descarga El Señor de las Ilusiones [HDrip][Castellano][Terror][1995][WU]

Información del Post