MR. Magoo y Tiro Loco MC.Graw (8) [DvdRip Latino][WU-UP]


Descargar MR. Magoo y Tiro Loco MC.Graw (8) [DvdRip Latino][WU-UP] Película Gratis 1 link por Mega y Mediafire



Argentina Warez » Descargas Gratis » Películas Gratis MR. Magoo y Tiro Loco MC.Graw (8) [DvdRip Latino][WU-UP]
14-ago-2011
explo1515
Lead User
MR. Magoo y Tiro Loco MC.Graw (8) [DvdRip Latino][WU-UP]
MR. Magoo y Tiro Loco MC.Graw (8) [DvdRip Latino][WU-UP]





Coleccion: Coleccion Dibujos Animados
Titulo: MR. Magoo y Tiro Loco MC.Graw
Genero: Animacion, Infantil, Clasicos
Año: 2011



12 CAPITULOS CLASICOS ANIMADOS DE HOY Y SIEMPRE
Disfruta de las Diversas Locuras de Nuestros Dibujos Animados Favoritos
Clásicos Inolvidables Donde Reír es Inevitable Rip por SoloKvcd Para Todos ustedes


CAPITULO
1 LA MANSIÓN DE LOS MONSTRUOS
2 MAGO MONTAÑERO
3 MAGOO DE MUSEO
4 MAGOO EN EL ZOOLOGICO
5 LA FUENTE DE LA JUVENTUD
6 REGRESA QUERIDO MC. BARKER
7 TERRITORIO DE LOS HOMBRES MALOS
8 CORDERO PICADO
9 SALUDO BANDIDO
10 CAMPO MADERERO
11 LOCOMOTORA LOCA
12 HÉROE EXPLORADOR




Calidad : DVDRip
Idioma : Latino
Subtitulo : No
Des/Compresor : WinRar
IMDB : N/A
General
Format : MPEG-PS
File size : 757 MiB
Duration : 1h 50mn
Overall bit rate : 955 Kbps
Writing library : encoded by TMPGEnc (ver. 2.521.58.169)

Video
ID : 224 (0xE0)
Format : MPEG Video
Format version : Version 1
Format settings, BVOP : Yes
Format settings, Matrix : Custom
Duration : 1h 50mn
Bit rate mode : Variable
Bit rate : 808 Kbps
Width : 352 pixels
Height : 240 pixels
Display aspect ratio : 3:2
Frame rate : 29.970 fps
Standard : NTSC
Color space : YUV
Bit depth : 8 bits
Scan type : Progressive
Compression mode : Lossy
Bits/(Pixel*Frame) : 0.319
Stream size : 640 MiB (85%)
Writing library : TMPGEnc 2.521.58.169


Audio
ID : 192 (0xC0)
Format : MPEG Audio
Format version : Version 1
Format profile : Layer 2
Duration : 1h 50mn
Bit rate mode : Constant
Bit rate : 128 Kbps
Channel(s) : 2 channels
Sampling rate : 44.1 KHz
Compression mode : Lossy
Stream size : 101 MiB (13%)










LINK INTERCAMBIABLES DE 400MB


Código:
  http://ul.to/jsrur53i/Dibujos.Animados.Vol.8.DvdRip-theone1515.part2.rar
  http://ul.to/o2hu8yoa/Dibujos.Animados.Vol.8.DvdRip-theone1515.part1.rar



Código:
 http://www.wupload.com/file/93592140
  http://www.wupload.com/file/93590566


Descargar MR. Magoo y Tiro Loco MC.Graw (8) [DvdRip Latino][WU-UP] Pelicula Gratis


14-ago-2011
papacharli
White User
Re: MR. Magoo y Tiro Loco MC.Graw (8) [DvdRip Latino][WU-UP]
gracias bajandooo
10-oct-2011
pitabebe
White User
Re: MR. Magoo y Tiro Loco MC.Graw (8) [DvdRip Latino][WU-UP]
buenisimo justo me faltaba este para terminar casi con la coleccion mil gracias. bajando

Necesitás estar Registrado para dejar comentarios en MR. Magoo y Tiro Loco MC.Graw (8) [DvdRip Latino][WU-UP]

Información del Post

  • Puntos Puntos: 0 |
  • Visitas Visitas: 963 |
  • Autor Publicado por: explo1515 |
  • Categoría: Películas Gratis