Argentina Warez » Descargas Gratis » Películas Gratis Thor (2011) [Bluray 1080p][Español Latino-Castellano-Inglés]
01-sep-2011
Ch4m4k0
Premium User
Thor (2011) [Bluray 1080p][Español Latino-Castellano-Inglés]




Thor es un arrogante y codicioso guerrero cuyos actos imprudentes reavivan una antigua guerra. Por ese motivo, su
padre Odín lo castiga desterrándolo a la Tierra para que viva entre los hombres y descubra así el verdadero
sentido de la humildad. Cuando el villano más peligroso de su mundo envía a la Tierra a las fuerzas más oscuras
de Asgard, Thor se dará cuenta de lo que realmente hace falta para ser un verdadero héroe.



TÍTULO ORIGINAL: Thor
AÑO: 2011
DURACIÓN: 130 min.
PAÍS: USA
DIRECTOR: Kenneth Branagh
GUIÓN: Mark Protosevich (Personajes: Stan Lee, Jack Kirby)
MÚSICA: Patrick Doyle
FOTOGRAFÍA: Haris Zambarloukos
REPARTO: Chris Hemsworth, Natalie Portman, Anthony Hopkins, Tom Hiddleston, Stellan Skarsgård, Idris Elba,
Kat Dennings, Clark Gregg, Jamie Alexander, Ray Stevenson, Tadanobu Asano, Josh Dallas, Colm Feore, Rene Russo,
Samuel L. Jackson
PRODUCTORA: Marvel Studios / Paramount Pictures
GÉNERO: Fantástico. Acción. Aventuras | Mitología. Superhéroes. Cómic. Marvel Comics. Cine épico. 3-D



Código:
Complete name                            : F:\Descargas\THORBRLAT1080\TH.1080pTRIBy.Chamako.mkv
Format                                   : Matroska
Format version                           : Version 2
File size                                : 8.67 GiB
Duration                                 : 1h 54mn
Overall bit rate                         : 10.8 Mbps
Movie name                               : Thor.2011.1080p.BluRay.LATiNO.SPA.ENG.x264-SECTOR7 - WWW.INTERCAMBIOSVIRTUALES.ORG
Encoded date                             : UTC 2011-08-31 21:52:53
Writing application                      : mkvmerge v3.3.0 ('Language') built on Mar 24 2010 14:59:24
Writing library                          : libebml v0.8.0 + libmatroska v0.9.0

Video
ID                                       : 1
Format                                   : AVC
Format/Info                              : Advanced Video Codec
Format profile                           : High@L4.1
Format settings, CABAC                   : Yes
Format settings, ReFrames                : 5 frames
Codec ID                                 : V_MPEG4/ISO/AVC
Duration                                 : 1h 54mn
Bit rate                                 : 8 020 Kbps
Width                                    : 1 920 pixels
Height                                   : 816 pixels
Display aspect ratio                     : 2.35:1
Frame rate                               : 23.976 fps
Color space                              : YUV
Chroma subsampling                       : 4:2:0
Bit depth                                : 8 bits
Scan type                                : Progressive
Bits/(Pixel*Frame)                       : 0.214
Stream size                              : 6.26 GiB (72%)
Writing library                          : x264 core 116 r2074 2641b9e
Encoding settings                        : cabac=1 / ref=5 / deblock=1:0:0 / analyse=0x3:0x133 / me=umh / subme=8 / psy=1 / psy_rd=1.00:0.00 / mixed_ref=1 / me_range=16 / chroma_me=1 / trellis=1 / 8x8dct=1 / cqm=0 / deadzone=21,11 / fast_pskip=0 / chroma_qp_offset=-2 / threads=18 / sliced_threads=0 / nr=0 / decimate=1 / interlaced=0 / bluray_compat=0 / constrained_intra=0 / bframes=3 / b_pyramid=2 / b_adapt=1 / b_bias=0 / direct=1 / weightb=1 / open_gop=0 / weightp=2 / keyint=240 / keyint_min=24 / scenecut=40 / intra_refresh=0 / rc_lookahead=40 / rc=2pass / mbtree=1 / bitrate=8020 / ratetol=1.0 / qcomp=0.60 / qpmin=0 / qpmax=69 / qpstep=4 / cplxblur=20.0 / qblur=0.5 / ip_ratio=1.40 / aq=1:1.00
Language                                 : English

Audio #1
ID                                       : 2
Format                                   : AC-3
Format/Info                              : Audio Coding 3
Mode extension                           : CM (complete main)
Codec ID                                 : A_AC3
Duration                                 : 1h 54mn
Bit rate mode                            : Constant
Bit rate                                 : 640 Kbps
Channel(s)                               : 6 channels
Channel positions                        : Front: L C R, Side: L R, LFE
Sampling rate                            : 48.0 KHz
Bit depth                                : 16 bits
Compression mode                         : Lossy
Stream size                              : 526 MiB (6%)
Title                                    : 640Kbps Latino
Language                                 : Spanish

Audio #2
ID                                       : 3
Format                                   : AC-3
Format/Info                              : Audio Coding 3
Mode extension                           : CM (complete main)
Codec ID                                 : A_AC3
Duration                                 : 1h 54mn
Bit rate mode                            : Constant
Bit rate                                 : 640 Kbps
Channel(s)                               : 6 channels
Channel positions                        : Front: L C R, Side: L R, LFE
Sampling rate                            : 48.0 KHz
Bit depth                                : 16 bits
Compression mode                         : Lossy
Stream size                              : 526 MiB (6%)
Title                                    : 640kbps Castellano
Language                                 : Spanish

Audio #3
ID                                       : 4
Format                                   : DTS
Format/Info                              : Digital Theater Systems
Format profile                           : ES
Codec ID                                 : A_DTS
Duration                                 : 1h 54mn
Bit rate mode                            : Constant
Bit rate                                 : 1 510 Kbps
Channel(s)                               : 6 channels
Channel positions                        : Front: L C R, Side: L R, LFE
Sampling rate                            : 48.0 KHz
Bit depth                                : 24 bits
Compression mode                         : Lossy
Stream size                              : 1.21 GiB (14%)
Title                                    : English
Language                                 : English

Text #1
ID                                       : 5
Format                                   : UTF-8
Codec ID                                 : S_TEXT/UTF8
Codec ID/Info                            : UTF-8 Plain Text
Title                                    : Latino
Language                                 : Spanish

Text #2
ID                                       : 6
Format                                   : UTF-8
Codec ID                                 : S_TEXT/UTF8
Codec ID/Info                            : UTF-8 Plain Text
Title                                    : Latino Forzado
Language                                 : Spanish

Text #3
ID                                       : 7
Format                                   : UTF-8
Codec ID                                 : S_TEXT/UTF8
Codec ID/Info                            : UTF-8 Plain Text
Title                                    : Castellano
Language                                 : Spanish

Text #4
ID                                       : 8
Format                                   : UTF-8
Codec ID                                 : S_TEXT/UTF8
Codec ID/Info                            : UTF-8 Plain Text
Title                                    : Castellano Forzado
Language                                 : Spanish

Text #5
ID                                       : 9
Format                                   : UTF-8
Codec ID                                 : S_TEXT/UTF8
Codec ID/Info                            : UTF-8 Plain Text
Title                                    : English
Language                                 : English

Text #6
ID                                       : 10
Format                                   : UTF-8
Codec ID                                 : S_TEXT/UTF8
Codec ID/Info                            : UTF-8 Plain Text
Title                                    : English
Language                                 : English








Instrucciones de Descarga

Añadir el link al Jdownloader, y empieza a descargar del host que mas te agrade

9 Partes Intercambiables - Wupload/FIleSonic/FreakShare

Download THOR 2011 1080P Trial

CONTRASEÑA: Chamako
LA C "Mayuscula" lo demás minúscula, no copiar y pegar, escribir manualmente

Si Algun link cae solo enviame un MP con el link del post y lo resubiré

Descargar Thor (2011) [Bluray 1080p][Español Latino-Castellano-Inglés] Pelicula Gratis



Necesitás estar Registrado para dejar comentarios en Thor (2011) [Bluray 1080p][Español Latino-Castellano-Inglés]

Información del Post