Argentina Warez » Descargas Gratis » Películas Gratis Frozen 2011 (Bajo Cero) BDRip 1080p Mkv Español Latino/Castellano/Ingles Thriller
01-sep-2011
cadagoto
Premium User
Frozen 2011 (Bajo Cero) BDRip 1080p Mkv Español Latino/Castellano/Ingles Thriller



Frozen 2011 (Bajo Cero) BDRip 1080p Mkv Español Latino/Castellano/Ingles Thriller







TÍTULO ORIGINAL Frozen
AÑO 2011
DURACIÓN 94 min.
PAÍS [Estados Unidos]
DIRECTOR Adam Green
GUIÓN Adam Green
MÚSICA MarAndy Garfield
FOTOGRAFÍA Will Barratt
REPARTO Emma Bell, Shawn Ashmore, Kevin Zegers, Ed Ackerman, Rileah Vanderbilt, Kane Hodder, Adam Johnson, Chris York, Peder Melhuse
PRODUCTORA Anchor Bay Films
GÉNERO Terror. Thriller


Código:
General
Complete name : Bajo.Cero.2010.1080p.CadagotoHD.mkv
Format : Matroska
File size : 10.6 GiB
Duration : 1h 33mn
Overall bit rate : 16.3 Mbps
Movie name : Bajo cero (Frozen) 2010 1080p 
Writing application : mkvmerge v3.3.0 ('Language') built on Mar 24 2010 14:59:24
Writing library : libebml v0.8.0 + libmatroska v0.9.0

Video
ID : 1
Format : AVC
Format/Info : Advanced Video Codec
Format profile : High@L4.1
Format settings, CABAC : Yes
Format settings, ReFrames : 5 frames
Codec ID : V_MPEG4/ISO/AVC
Duration : 1h 33mn
Bit rate : 14.2 Mbps
Width : 1 920 pixels
Height : 800 pixels
Display aspect ratio : 2.40:1
Frame rate : 23.976 fps
Color space : YUV
Chroma subsampling : 4:2:0
Bit depth : 8 bits
Scan type : Progressive
Bits/(Pixel*Frame) : 0.386
Stream size : 9.06 GiB (85%)
Title : Bajo cero (Frozen) 2010 1080p 
Writing library : x264 core 102 r1666 d058f37


Audio #1
ID : 2
Format : AC-3
Format/Info : Audio Coding 3
Mode extension : CM (complete main)
Codec ID : A_AC3
Duration : 1h 33mn
Bit rate mode : Constant
Bit rate : 384 Kbps
Channel(s) : 6 channels
Channel positions : Front: L C R, Side: L R, LFE
Sampling rate : 48.0 KHz
Bit depth : 16 bits
Compression mode : Lossy
Stream size : 256 MiB (2%)
Title : Audio Castellano AC3
Language : Spanish

Audio #2
ID : 3
Format : DTS
Format/Info : Digital Theater Systems
Codec ID : A_DTS
Duration : 1h 33mn
Bit rate mode : Constant
Bit rate : 1 510 Kbps
Channel(s) : 6 channels
Channel positions : Front: L C R, Side: L R, LFE
Sampling rate : 48.0 KHz
Bit depth : 24 bits
Compression mode : Lossy
Stream size : 1 008 MiB (9%)
Title : Audio DTS Ingles
Language : English

Audio #3
ID : 4
Format : AC-3
Format/Info : Audio Coding 3
Mode extension : CM (complete main)
Codec ID : A_AC3
Duration : 1h 33mn
Bit rate mode : Constant
Bit rate : 192 Kbps
Channel(s) : 2 channels
Channel positions : Front: L R
Sampling rate : 48.0 KHz
Bit depth : 16 bits
Compression mode : Lossy
Stream size : 128 MiB (1%)
Title : Audio Castellano AC3
Language : Spanish

Text #1
ID : 5
Format : UTF-8
Codec ID : S_TEXT/UTF8
Codec ID/Info : UTF-8 Plain Text
Title : Subtitulos Castellano Forzados
Language : Spanish

Text #2
ID : 6
Format : UTF-8
Codec ID : S_TEXT/UTF8
Codec ID/Info : UTF-8 Plain Text
Title : Subtitulos Castellano Completos
Language : Spanish
El argumento de Frozen nos presenta a dos locos por el snowboard, que van en el telesilla de una estación de esquí ambicionando la última bajada por la ladera antes de marchar a casa. De pronto, el telesilla se detiene por completo. Ni un alma alrededor. Todo empeora cuando las luces de la estación se apagan para no encenderse de nuevo hasta el próximo fin de semana. Entonces tendrán que hacer cosas impensables para poder sobrevivir a una muerte segura por congelación. Pero además, pronto se darán cuenta de que el frío no es su peor enemigo.













¡Importante! Para Descargar De Linksave Tener Abierto Jdownloader,Tener Instalado Click 'n Load,
Y hacer (Click,pinchar)En Esta Imagen En LinkSave.In!..... O Bajate el DLC!



Archivos De 800 MB Intercambiables!





Descargar Aqui Los Enlaces
Download misc Bajo.Cero.1080p.Latino.CadagotoHD




.
Si Los Links No Estan On-Line,avisame Asi Tratare De Reponerlos!

Aportar Toma Buen Tiempo,Resubir Mucho Mas ,Agradecer No Cuesta Nada !






Descargar Frozen 2011 (Bajo Cero) BDRip 1080p Mkv Español Latino/Castellano/Ingles Thriller Pelicula Gratis



Necesitás estar Registrado para dejar comentarios en Frozen 2011 (Bajo Cero) BDRip 1080p Mkv Español Latino/Castellano/Ingles Thriller

Información del Post