Argentina Warez » Descargas Gratis » Películas Gratis Descargar: Hombres de Honor [Gratis]
09-sep-2011
Prozac666
Baneado ;(
Descargar: Hombres de Honor [Gratis]



Título original: Men of Honor
Año: 2000
País: USA
Duración: 129 min
Estreno en España: 20-04-2001
Estreno en USA: 10-11-2000
Director: George Tillman Jr.
Reparto: Robert De Niro, Cuba Gooding Jr., Charlize Theron, Michael Rapaport, Hal Holbrook, David Keith, Joshua Leonard, Powers Boothe, David Conrad, Aunjanne Ellis, Ryan Honey, Scott Kraft, Holt McCallany, Dennis Troutman, Joshua Feinman, Theo Nicholas Pagones
Guión: Scott Marshall Smith
Música: Mark Isham
Productora: 20th Century Fox
Género: Drama





Sinopsis:
Carl Brashear (Cuba Gooding Jr.) no deja que nada se interponga en su camino para lograr sus sueños. Hijo de un campesino de Kentucky, Carl deja su hogar en lo que espera va a ser una mejor vida. Después de integrarse a la recién formada Marina, Carl pasa dos años escribiendo cientos de cartas antes de que la milicia acepte su aplicación para su programa en la Escuela de Buceo. Billy Sunday, el oficial de entrenamiento de Carl, no quiere formar parte de Carl ni de sus ambiciones. Sunday, un reconocido Comandante en Jefe Buzo de la Marina, cuyas hazañas para crear problemas son tan legendarias como sus logros como buzo, ridiculiza y reta despiadadamente a Carl, con la esperanza de que dude y renuncie. Pero Carl tiene otras ideas. Su meta es clara, su determinación firme. Nada se interpondrá en el camino de su sueño en convertirse un Buzo de la Marina. Ni siquiera Billy Sunday. Años más tarde, después de que Carl sufre una herida que lo deja lisiado, él y Sunday inesperadamente unen fuerzas. El rebelde oficial, sin nunca dejar pasar una oportunidad para burlarse del sistema, ayuda a Carl a resistir tenazmente la burocracia naval, sobreponerse a la perdida de una pierna, y encaminarse para hacer historia militar. Para cuando se retira, Carl obtiene los distinguidos títulos de Buzo Especialista y Comandante en Jefe, los rangos más altos que puede conseguir un recluta de la Marina.







General
Complete name : E:\Hombres de honor Evilsega.avi
Format : AVI
Format/Info : Audio Video Interleave
Format profile : OpenDML
File size : 2.51 GiB
Duration : 2h 8mn
Overall bit rate : 2 787 Kbps
Writing application : VirtualDubMod 1.5.10.2 (build 2540/release)
Writing library : VirtualDubMod build 2540/release

Video
ID : 0
Format : MPEG-4 Visual
Format profile : Advanced Simple@L5
Format settings, BVOP : 2
Format settings, QPel : No
Format settings, GMC : No warppoints
Format settings, Matrix : Default (H.263)
Codec ID : XVID
Codec ID/Hint : XviD
Duration : 2h 8mn
Bit rate : 2 022 Kbps
Width : 720 pixels
Height : 304 pixels
Display aspect ratio : 2.35:1
Frame rate : 23.976 fps
Color space : YUV
Chroma subsampling : 4:2:0
Bit depth : 8 bits
Scan type : Progressive
Compression mode : Lossy
Bits/(Pixel*Frame) : 0.385
Stream size : 1.82 GiB (73%)
Writing library : XviD 1.1.2 (UTC 2006-11-01)

Audio
ID : 1
Format : DTS
Format/Info : Digital Theater Systems
Codec ID : 2001
Codec ID/Info : Digital Theater Systems
Duration : 2h 8mn
Bit rate mode : Constant
Bit rate : 755 Kbps
Channel(s) : 6 channels
Channel positions : Front: L C R, Side: L R, LFE
Sampling rate : 48.0 KHz
Bit depth : 16 bits
Compression mode : Lossy
Stream size : 695 MiB (27%)
Alignment : Split accross interleaves
Interleave, duration : 42 ms (1.00 video frame)
Interleave, preload duration : 500 ms















Parte 1 : http://www.wupload.com/file/156626124
Parte 2: http://www.wupload.com/file/156628869
Parte 3: http://www.wupload.com/file/156630761
Parte 4 : http://www.wupload.com/file/156633544






.

Descargar Descargar: Hombres de Honor [Gratis] Pelicula Gratis


09-sep-2011
Rainier74
Premier User
Re: Descargar: Hombres de Honor [Gratis]
muy buena pelicula gracias
09-sep-2011
Prozac666
Baneado ;(
Re: Descargar: Hombres de Honor [Gratis]
De nada , tambien me gustó mucho cuando la ví.

Necesitás estar Registrado para dejar comentarios en Descargar: Hombres de Honor [Gratis]

Información del Post

  • Puntos Puntos: 0 |
  • Visitas Visitas: 486 |
  • Autor Publicado por: Prozac666 |
  • Categoría: Películas Gratis