Descargar: Doomsday Prophecy [DvdRIP] [2011] [Sub.] [Ficcion] [WU-FJ-FLS-US]


Descargar Descargar: Doomsday Prophecy [DvdRIP] [2011] [Sub.] [Ficcion] [WU-FJ-FLS-US] Película Gratis 1 link por Mega y Mediafire



Argentina Warez » Descargas Gratis » Películas Gratis Descargar: Doomsday Prophecy [DvdRIP] [2011] [Sub.] [Ficcion] [WU-FJ-FLS-US]
22-sep-2011
Game_Uploader
Premium User
Descargar: Doomsday Prophecy [DvdRIP] [2011] [Sub.] [Ficcion] [WU-FJ-FLS-US]
Descargar: Doomsday Prophecy [DvdRIP] [2011] [Sub.] [Ficcion] [WU-FJ-FLS-US]


Un editor de libros tiene que hacer todo lo posible para ayudar a prevenir el Armagedón.

Titulo: Doomsday Prophecy
Año: 2011
Genero: Ciencia Ficcion
Idioma: Ingles con subtitulos en español pegados al video
Formato: AVI
Calidad de imagen: Muy Buena
dijo:
General
Complete name : files/p-doo__Luke.avi
Format : AVI
Format/Info : Audio Video Interleave
File size : 1.09 GiB
Duration : 1h 25mn
Overall bit rate : 1 824 Kbps
Writing application : MEncoder 1.0rc2-4.2.4
Writing library : MPlayer

Video
ID : 0
Format : MPEG-4 Visual
Format profile : Simple@L1
Format settings, BVOP : No
Format settings, QPel : No
Format settings, GMC : No warppoints
Format settings, Matrix : Default (H.263)
Codec ID : XVID
Codec ID/Hint : XviD
Duration : 1h 25mn
Bit rate : 1 652 Kbps
Width : 624 pixels
Height : 352 pixels
Display aspect ratio : 16:9
Frame rate : 23.976 fps
Color space : YUV
Chroma subsampling : 4:2:0
Bit depth : 8 bits
Scan type : Progressive
Bits/(Pixel*Frame) : 0.314
Stream size : 1 015 MiB (91%)
Writing library : Lavc51.44.0

Audio
ID : 1
Format : MPEG Audio
Format version : Version 1
Format profile : Layer 3
Codec ID : 55
Codec ID/Hint : MP3
Duration : 1h 25mn
Bit rate mode : Constant
Bit rate : 160 Kbps
Channel(s) : 2 channels
Sampling rate : 44.1 KHz
Stream size : 98.3 MiB (9%)
Alignment : Aligned on interleaves
Interleave, duration : 26 ms (0.63 video frame)
Interleave, preload duration : 522 ms

Descargar Descargar: Doomsday Prophecy [DvdRIP] [2011] [Sub.] [Ficcion] [WU-FJ-FLS-US] Pelicula Gratis


28-ene-2012
soldadodelrey
White User
Re: Descargar: Doomsday Prophecy [DvdRIP] [2011] [Sub.] [Ficcion] [WU-FJ-FLS-US]
los link estan ROTOS......................
22-jul-2012
RULMRRH
Silver User
Re: Descargar: Doomsday Prophecy [DvdRIP] [2011] [Sub.] [Ficcion] [WU-FJ-FLS-US]
links caidos

Necesitás estar Registrado para dejar comentarios en la descarga Descargar: Doomsday Prophecy [DvdRIP] [2011] [Sub.] [Ficcion] [WU-FJ-FLS-US]

Información del Post

  • Puntos Puntos: 0 |
  • Visitas Visitas: 434 |
  • Autor Publicado por: Game_Uploader |
  • Categoría: Películas Gratis