Rápido y Furioso 5 (2011)[Dvdrip][Audio Latino]


Descargar Rápido y Furioso 5 (2011)[Dvdrip][Audio Latino] Película Gratis 1 link



Argentina Warez » Descargas Gratis » Películas Gratis Rápido y Furioso 5 (2011)[Dvdrip][Audio Latino]
30-sep-2011
rpontevedra3487
Baneado ;(
Rápido y Furioso 5 (2011)[Dvdrip][Audio Latino]
Rápido y Furioso 5 (2011) | Dvdrip | Audio Latino





Sipnosis


Desde que Brian O?Conner (Paul Walker) y Mia Toretto (Jordana Brewster) sacaron a Dom Toretto (Vin Diesel) de la cárcel, se han visto obligados a huir y cruzar muchas fronteras para evitar a la policía. Atrapados en Río de Janeiro, una vez más tienen que darse a la fuga si quieren conservar la libertad. Pero los tres saben muy bien que la única posibilidad que tienen de poner fin a esta situación es enfrentarse de una vez por todas al empresario corrupto que quiere verlos muertos. Pero éste no es el único que les sigue la pista?



Ficha Técnica


TÍTULO ORIGINAL: Fast Five (The Fast and the Furious 5)
OTROS TÍTULOS: The Fast & Furious 5 (A todo gas 5) / Rápidos y Furiosos 5in Control
AÑO: 2011
DURACIÓN: 130 min.
PAÍS: USA
DIRECTOR: Justin Lin
GUIÓN: Chris Morgan
MÚSICA: Brian Tyler
FOTOGRAFÍA: Stephen F. Windon
REPARTO: Vin Diesel, Paul Walker, Dwayne ?The Rock? Johnson, Jordana Brewster, Tyrese Gibson, Elsa Pataky, Sung Kang, Matt Schulze, Ludacris, Joaquim de Almeida
PRODUCTORA: Universal Pictures / Original Film
GÉNERO: Acción. Comedia | Automovilismo. Crimen. Robos & Atracos. Secuela


Capturas






Info del ripeo


Código:
General
Complete name               :   Rapido.y.Furioso.5.2011.DVDRip.LATiNO.XviD.avi
Format                      : 	AVI
Format/Info                 : 	Audio Video Interleave
File size                   : 	702 MiB
Duration                    : 	2h 5mn
Overall bit rate            : 	785 Kbps
Recorded date               : 	19-08-2011
Writing application         : 	VirtualDubMod 1.5.10.2 (build 2542/release)
Writing library             : 	VirtualDubMod build 2542/release


Video
ID                         : 	0
Format                     : 	MPEG-4 Visual
Format profile             : 	Advanced Simple@L5
Format settings, BVOP      : 	Yes
Format settings, QPel      : 	No
Format settings, GMC       : 	No warppoints
Format settings, Matrix    : 	Default (H.263)
Codec ID                   : 	XVID
Codec ID/Hint              : 	XviD
Duration                   : 	2h 5mn
Bit rate                   : 	648 Kbps
Width                      : 	640 pixels
Height                     : 	272 pixels
Display aspect ratio       : 	2.35:1
Frame rate                 : 	25.000 fps
Color space                : 	YUV
Chroma subsampling         : 	4:2:0
Bit depth                  : 	8 bits
Scan type                  : 	Progressive
Bits/(Pixel*Frame)         : 	0.149
Stream size                : 	579 MiB (82%)
Writing library            : 	XviD 1.2.1 (UTC 2008-12-04)

Audio
ID                         : 	1
Format                     : 	MPEG Audio
Format version             : 	Version 1
Format profile             : 	Layer 3
Mode                       : 	Joint stereo
Codec ID                   : 	55
Codec ID/Hint              : 	MP3
Duration                   : 	2h 5mn
Bit rate mode              : 	Constant
Bit rate                   : 	128 Kbps
Channel(s)                 : 	2 channels
Sampling rate              : 	48.0 KHz
Stream size                : 	114 MiB (16%)
Alignment                  : 	Aligned on interleaves
Interleave, duration       : 	40 ms (1.00 video frame)
Interleave, preload duration : 	504 ms
Writing library            : 	LAME3.98r
Encoding settings          : 	-m j -V 4 -q 2 -lowpass 17 -b 128


Descarga en 1 link desde Wupload o Fileserve






Descargar Rápido y Furioso 5 (2011)[Dvdrip][Audio Latino] Pelicula Gratis



Necesitás estar Registrado para dejar comentarios en Rápido y Furioso 5 (2011)[Dvdrip][Audio Latino]

Información del Post

  • Puntos Puntos: 0 |
  • Visitas Visitas: 292 |
  • Autor Publicado por: rpontevedra3487 |
  • Categoría: Películas Gratis