Rapido y Furioso 2 [Español Latino] [1LINK]


Descargar Rapido y Furioso 2 [Español Latino] [1LINK] Película Gratis 1 link



Argentina Warez » Descargas Gratis » Películas Gratis Rapido y Furioso 2 [Español Latino] [1LINK]
30-sep-2011
benjas09
Black User
Rapido y Furioso 2 [Español Latino] [1LINK]
Rapido y Furioso 2 [2003] [Dvrip] [Español]


Sinopsis

Secuela de “Rapido y Furioso” (The Fast and the Furious). Brian O’Connor (Paul Walker), un policía caído en desgracia, fue un adicto a la velocidad y ahora está pagando un precio por ello. Tal y como lo ven sus antiguos jefes y los altos mandos del FBI, este agente de incógnito les echó a perder una de las investigaciones más importantes que habían emprendido.
Información

TITULO ORIGINAL: Rapido y Furioso 2
AÑO: 2003
DURACION: 100 min.
GENERO: Accion
REPARTO: Paul Walker , Tyrese , Eva Mendes , Devon Aoki , Chris 'Ludacris' Bridges , Cole Hauser , James Remar, Thom Barry , Mark Boone Junior .
IDIOMA: Español
TAMAÑO: 986 MB
FORMATO: Avi
SERVIDOR: Fileserve
CALIDAD DE IMAGEN: Excelente Calidad (DVDRIP)
LINK EN TOTAL: 1 Link de 986 MB

Spoiler
General Complete name : /home/rapidown/public_html/rapidleech/files/Descargas-Directas/RF2.avi Format : DivX Format/Info : Hack of AVI File size : 987 MiB Duration : 1h 43mn Overall bit rate : 1 337 Kbps Video ID : 0 Format : MPEG-4 Visual Format settings, BVOP : 1 Format settings, QPel : No Format settings, GMC : No warppoints Format settings, Matrix : Default (H.263) Muxing mode : Packed bitstream Codec ID : DX50 Codec ID/Hint : DivX 5 Duration : 1h 43mn Bit rate : 1 200 Kbps Width : 720 pixels Height : 480 pixels Display aspect ratio : 3:2 Frame rate : 25.000 fps Standard : NTSC Color space : YUV Chroma subsampling : 4:2:0 Bit depth : 8 bits Scan type : Progressive Compression mode : Lossy Bits/(Pixel*Frame) : 0.139 Stream size : 885 MiB (90%) Title : Video Writing library : DivX 6.2.5 (UTC 2006-06-16) Audio ID : 1 Format : MPEG Audio Format version : Version 1 Format profile : Layer 3 Codec ID : 55 Codec ID/Hint : MP3 Duration : 1h 43mn Bit rate mode : Constant Bit rate : 128 Kbps Channel(s) : 2 channels Sampling rate : 48.0 KHz Compression mode : Lossy Stream size : 94.5 MiB (10%) Alignment : Split accross interleaves Interleave, duration : 40 ms (1.00 video frame) Interleave, preload duration : 50 ms Title : Audio


Capturas


Descarga


http://www.fileserve.com/file/uEfEDCG

Descargar Rapido y Furioso 2 [Español Latino] [1LINK] Pelicula Gratis


30-sep-2011
GUILLERMO TRINIDAD
White User
Re: Rapido y Furioso 2 [Español Latino] [1LINK]
grcias men. descargando
30-sep-2011
benjas09
Black User
Re: Rapido y Furioso 2 [Español Latino] [1LINK]
De nada GUILLERMO TRINIDAD
10-ene-2012
palominomix
New User
Re: Rapido y Furioso 2 [Español Latino] [1LINK]
Gracias we
26-feb-2012
LOKO_90
New User
Re: Rapido y Furioso 2 [Español Latino] [1LINK]
che subila de nuevo

Necesitás estar Registrado para dejar comentarios en Rapido y Furioso 2 [Español Latino] [1LINK]

Información del Post

  • Puntos Puntos: 0 |
  • Visitas Visitas: 2395 |
  • Autor Publicado por: benjas09 |
  • Categoría: Películas Gratis