Argentina Warez » Descargas Gratis » Películas Gratis Aliens 2 – El Regreso (1986) Dvdrip Latino [Terror][FJ-UL]
03-oct-2011
eifiu
King User
Aliens 2 – El Regreso (1986) Dvdrip Latino [Terror][FJ-UL]


TITULO ORIGINAL Aliens
OTROS TÍTULOS Aliens – El Regreso
DIRECCIÓN James Cameron
REPARTO Tom Skerritt, Sigourney Weaver, John Hurt, Ian Holm, Harry Dean Stanton, Yaphet Kotto, Veronica Cartwright, Helen Horton
AÑO 1986
PAÍS Estados Unidos, Reino Unido
PRODUCTORA 20th Century Fox
GENERO Ciencia Ficción, Acción

Format : AVI
Format/Info : Audio Video Interleave
File size : 1.37 GiB
Duration : 2h 17mn
Overall bit rate : 1 428 Kbps
Writing application : VirtualDubMod 1.5.4.1 (build 2178/release)
Writing library : VirtualDubMod build 2178/release
Video
ID : 0
Format : MPEG-4 Visual
Format profile : Advanced Simple@L5
Format settings, BVOP : 1
Format settings, QPel : No
Format settings, GMC : No warppoints
Format settings, Matrix : Custom
Codec ID : XVID
Codec ID/Hint : XviD
Duration : 2h 17mn
Bit rate : 1 229 Kbps
Width : 720 pixels
Height : 400 pixels
Display aspect ratio : 16:9
Frame rate : 23.976 fps
Color space : YUV
Chroma subsampling : 4:2:0
Bit depth : 8 bits
Scan type : Progressive
Compression mode : Lossy
Bits/(Pixel*Frame) : 0.178
Stream size : 1.18 GiB (86%)
Writing library : XviD 1.2.0.dev47 (UTC 2006-11-01)
Audio
ID : 1
Format : AC-3
Format/Info : Audio Coding 3
Mode extension : CM (complete main)
Codec ID : 2000
Duration : 2h 17mn
Bit rate mode : Constant
Bit rate : 192 Kbps
Channel(s) : 2 channels
Channel positions : Front: L R
Sampling rate : 48.0 KHz
Bit depth : 16 bits
Compression mode : Lossy
Delay relative to video : 4ms
Stream size : 188 MiB (13%)
Alignment : Split accross interleaves
Interleave, duration : 96 ms (2.30 video frames)
Interleave, preload duration : 96 ms
Language : Spanish


Sinopsis
Alien es el perfecto organismo. Una máquina de matar cuya excelencia física sólo puede competir con su hostilidad. La oficial Ripley y la tripulación de la nave “Nostromo” se enfrentaron a esa monstruosa criatura. Sólo Ripley sobrevivió a la masacre. Después de vagar por el espacio durante varios años, Ripley es rescatada. Durante ese tiempo el planeta de donde salió el alien ha sido colonizado. Cuando se pierde la comunicación con la colonia, se decide enviar para investigar a un equipo de fornidos marines espaciales, con Ripley al mando de la expedición. Lo que les espera allí no es sólo una criatura, son miles. El Alien se ha reproducido y esta vez la lucha es por la supervivencia de la Humanidad.


Descargar Aliens 2 – El Regreso (1986) Dvdrip Latino [Terror][FJ-UL] Pelicula Gratis


04-oct-2011
breakstorm
King User
Re: Aliens 2 – El Regreso (1986) Dvdrip Latino [Terror][FJ-UL]
Gracias por el aporte
08-oct-2011
jcseery
White User
Re: Aliens 2 – El Regreso (1986) Dvdrip Latino [Terror][FJ-UL]
gracias..desde villa gesell...

Necesitás estar Registrado para dejar comentarios en Aliens 2 – El Regreso (1986) Dvdrip Latino [Terror][FJ-UL]

Información del Post