KamaSutra : El arte de amar , Caricias y Besos Intimos [DVDRip][Castellano][1LINK]


Descargar KamaSutra : El arte de amar , Caricias y Besos Intimos [DVDRip][Castellano][1LINK] Película Gratis 1 link por Mega y Mediafire



Argentina Warez » Descargas Gratis » Películas Gratis KamaSutra : El arte de amar , Caricias y Besos Intimos [DVDRip][Castellano][1LINK]
11-oct-2011
magicbibi
Black User
KamaSutra : El arte de amar , Caricias y Besos Intimos [DVDRip][Castellano][1LINK]






Código:
General
Format : AVI
Format/Info : Audio Video Interleave
File size : 700 MiB
Duration : 57mn 51s
Overall bit rate mode : Variable
Overall bit rate : 1 692 Kbps
Writing application : VirtualDubMod 1.5.10.2 (build 2540/release)
Writing library : VirtualDubMod build 2540/release


Video
ID : 0
Format : MPEG-4 Visual
Format profile : Advanced Simple@L5
Format settings, BVOP : 1
Format settings, QPel : No
Format settings, GMC : No warppoints
Format settings, Matrix : Default (MPEG)
Codec ID : XVID
Codec ID/Hint : XviD
Duration : 57mn 51s
Bit rate : 1 411 Kbps
Width : 608 pixels
Height : 448 pixels
Display aspect ratio : 4:3
Frame rate : 25.000 fps
Color space : YUV
Chroma subsampling : 4:2:0
Bit depth : 8 bits
Scan type : Progressive
Compression mode : Lossy
Bits/(Pixel*Frame) : 0.207
Stream size : 584 MiB (83%)
Writing library : XviD 0039 build=2005.09.16 (UTC 2005-09-16)


Audio #1
ID : 1
Format : MPEG Audio
Format version : Version 1
Format profile : Layer 3
Mode : Joint stereo
Mode extension : MS Stereo
Codec ID : 55
Codec ID/Hint : MP3
Duration : 57mn 51s
Bit rate mode : Variable
Bit rate : 128 Kbps
Channel(s) : 2 channels
Sampling rate : 48.0 KHz
Compression mode : Lossy
Stream size : 54.6 MiB (8%)
Alignment : Aligned on interleaves
Interleave, duration : 24 ms (0.60 video frame)
Interleave, preload duration : 485 ms
Writing library : LAME3.90.
Encoding settings : -m j -V 4 -q 2 -lowpass 17.6 --abr 128


Audio #2
ID : 2
Format : MPEG Audio
Format version : Version 1
Format profile : Layer 3
Mode : Joint stereo
Mode extension : MS Stereo
Codec ID : 55
Codec ID/Hint : MP3
Duration : 57mn 51s
Bit rate mode : Variable
Bit rate : 128 Kbps
Channel(s) : 2 channels
Sampling rate : 48.0 KHz
Compression mode : Lossy
Stream size : 53.0 MiB (8%)
Alignment : Aligned on interleaves
Interleave, duration : 24 ms (0.60 video frame)
Interleave, preload duration : 494 ms
Writing library : LAME3.90.
Encoding settings : -m j -V 4 -q 2 -lowpass 17.6 --abr 128








http://www.fileserve.com/file/8jvgNuN





http://www.wupload.com/file/378044622




Descargar KamaSutra : El arte de amar , Caricias y Besos Intimos [DVDRip][Castellano][1LINK] Pelicula Gratis



Necesitás estar Registrado para dejar comentarios en KamaSutra : El arte de amar , Caricias y Besos Intimos [DVDRip][Castellano][1LINK]

Información del Post

  • Puntos Puntos: 0 |
  • Visitas Visitas: 1339 |
  • Autor Publicado por: magicbibi |
  • Categoría: Películas Gratis