Wuxia (2011) - [DVDRip][Sub.Español][Artes Marciales]


Descargar Wuxia (2011) - [DVDRip][Sub.Español][Artes Marciales] Película Gratis 1 link por Mega y Mediafire



Argentina Warez » Descargas Gratis » Películas Gratis Wuxia (2011) - [DVDRip][Sub.Español][Artes Marciales]
17-oct-2011
grewlis
Baneado ;(
Wuxia (2011) - [DVDRip][Sub.Español][Artes Marciales]








Bajo la dinastía Qing, Liu Jin-xi, fabricante de papel, lleva una vida apacible en un pueblo remoto con su mujer Ayu y sus dos hijos. Pero la llegada de un detective cambiará sus vidas…




Código:
General
Complete name                            : /disco3/grewlise/public_html/rapidleech/files/Descargas-Directas/Swordsmen.2011.DVDRip.subesp.Edugre.avi
Format                                   : AVI
Format/Info                              : Audio Video Interleave
File size                                : 1.36 GiB
Duration                                 : 1h 55mn
Overall bit rate                         : 1 687 Kbps
Writing application                      : VirtualDubMod 1.5.10.2 (build 2540/release)
Writing library                          : VirtualDub build 32842/release

Video
ID                                       : 0
Format                                   : MPEG-4 Visual
Format profile                           : Advanced Simple@L5
Format settings, BVOP                    : 1
Format settings, QPel                    : No
Format settings, GMC                     : No warppoints
Format settings, Matrix                  : Custom
Muxing mode                              : Packed bitstream
Codec ID                                 : XVID
Codec ID/Hint                            : XviD
Duration                                 : 1h 55mn
Bit rate                                 : 1 295 Kbps
Width                                    : 640 pixels
Height                                   : 272 pixels
Display aspect ratio                     : 2.35:1
Frame rate                               : 23.976 fps
Color space                              : YUV
Chroma subsampling                       : 4:2:0
Bit depth                                : 8 bits
Scan type                                : Progressive
Compression mode                         : Lossy
Bits/(Pixel*Frame)                       : 0.310
Stream size                              : 1.04 GiB (77%)
Writing library                          : XviD 64

Audio
ID                                       : 1
Format                                   : AC-3
Format/Info                              : Audio Coding 3
Mode extension                           : CM (complete main)
Codec ID                                 : 2000
Duration                                 : 1h 55mn
Bit rate mode                            : Constant
Bit rate                                 : 384 Kbps
Channel(s)                               : 6 channels
Channel positions                        : Front: L C R, Side: L R, LFE
Sampling rate                            : 48.0 KHz
Bit depth                                : 16 bits
Compression mode                         : Lossy
Stream size                              : 316 MiB (23%)
Alignment                                : Split accross interleaves
Interleave, duration                     : 42 ms (1.00 video frame)
Interleave, preload duration             : 500 ms






Descargar Wuxia (2011) - [DVDRip][Sub.Español][Artes Marciales] Pelicula Gratis


03-nov-2011
teoricobra
White User
Re: Wuxia (2011) - [DVDRip][Sub.Español][Artes Marciales]
bajandoooo!!!!! gracias por el aporte
06-nov-2011
ternura07
White User
Re: Wuxia (2011) - [DVDRip][Sub.Español][Artes Marciales]
Gracias por todos sus aportes!!!!!!!!!!!

Necesitás estar Registrado para dejar comentarios en Wuxia (2011) - [DVDRip][Sub.Español][Artes Marciales]

Información del Post