El Efecto Mariposa [DVDRip][Castellano][Comedia][1995]


Descargar El Efecto Mariposa [DVDRip][Castellano][Comedia][1995] Película Gratis 1 link por Mega y Mediafire



Argentina Warez » Descargas Gratis » Películas Gratis El Efecto Mariposa [DVDRip][Castellano][Comedia][1995]
05-nov-2011
maldon7
White User
El Efecto Mariposa [DVDRip][Castellano][Comedia][1995]


Título: El efecto mariposa
País: España
Año: 1995
Duración: 105 min.
Director: Fernando Colomo
Guión: Joaquín Oristrell y Fernando Colomo
Música: Ketama
Fotografía: Jean-François Robin
Productora: Fernando Colomo P.C.

Reparto

Coque Malla, María Barranco, Rosa María Sardá, Penélope Cruz
James Fleet, Cecile Pallas, Pete Sullivan, Antonio Carmona,
Gracia Olayo, Josep Maria Pou, Lolita Flores


Argumento


Luis tiene 20 años y para realizar un master en Economía se marcha a Londres
con su madre Noelia, una mujer de ideas bastantes liberales.
En Londres vive Olivia, la hermana pequeña de Noelia, que está casada con un actor en paro.
Pasado un tiempo, Noelia regresa a Madrid, no sin antes pedirle a Olivia que espabile un poco a Luis

CRÍTICAS

Spoiler

"Colomo vuelve a trenzar culturas, costumbres y manías para recetar una comedia animada por el simpático y

muy ligero vuelo de las mariposas de antes" (Luis Martínez: Diario El País)
----------------------------------------
"Apoyado en el sentido del humor que caracteriza el estilo de Colomo, un producto que se quiere moderno,

comercial, sencillamente divertido" (Antonio Albert: Cinemanía)


Media Info

Spoiler
El efecto Mariposa.avi
Format : AVI
Format/Info : Audio Video Interleave
File size : 696 MiB
Duration : 1h 44mn
Overall bit rate : 931 Kbps
Writing application : VirtualDubMod 1.5.1.1a (build 1639/release)
Writing library : VirtualDubMod build 1639/release

Video
ID : 0
Format : MPEG-4 Visual
Format settings, BVOP : Yes
Format settings, QPel : No
Format settings, GMC : No warppoints
Format settings, Matrix : Default (H.263)
Codec ID : XVID
Codec ID/Hint : XviD
Duration : 1h 44mn
Bit rate : 802 Kbps
Width : 576 pixels
Height : 320 pixels
Display aspect ratio : 16:9
Frame rate : 25.000 fps
Color space : YUV
Chroma subsampling : 4:2:0
Bit depth : 8 bits
Scan type : Progressive
Bits/(Pixel*Frame) : 0.174
Stream size : 600 MiB (86%)

Audio
ID : 1
Format : MPEG Audio
Format version : Version 1
Format profile : Layer 3
Mode : Joint stereo
Mode extension : MS Stereo
Codec ID : 55
Codec ID/Hint : MP3
Duration : 1h 44mn
Bit rate mode : Variable
Bit rate : 116 Kbps
Nominal bit rate : 128 Kbps
Channel(s) : 2 channels
Sampling rate : 48.0 KHz
Stream size : 87.0 MiB (12%)
Alignment : Aligned on interleaves
Interleave, duration : 24 ms (0.60 video frame)
Interleave, preload duration : 478 ms
Writing library : LAME3.93
Encoding settings : -m j -V 0 -q 2 -lowpass 15.3 --abr 128



Spoiler




El Efecto Mariposa 696,40 MB

Descargar El Efecto Mariposa [DVDRip][Castellano][Comedia][1995] Pelicula Gratis



Necesitás estar Registrado para dejar comentarios en El Efecto Mariposa [DVDRip][Castellano][Comedia][1995]

Información del Post