Argentina Warez » Descargas Gratis » Películas Gratis Las Vacaciones de Mr. Bean [latino][1 link][DvdRip]
24-nov-2011
fucek
Platinum User
Las Vacaciones de Mr. Bean [latino][1 link][DvdRip]
Las Vacaciones de Mr. Bean

Título original: Mr. Bean’s Holiday
Otros títulos: Las Vacaciones de Mr. Bean
Año: 2007
Director: Steve Bendelack
Reparto: Rowan Atkinson, Willem Dafoe, Emma de Caunes, Jean Rochefort
Guión: Robin Driscoll, Hamish McColl
Música: Howard Goodall
Productora: Universal Pictures
Género: Comedia

Sinopsis:
Basado en una historia de Simon McBurney. En esta última desventura, el Sr. Bean, ese inadaptado e inarticulado al que parecen perseguir los reveses y la mala suerte, decide irse de vacaciones a la Costa Azul, lo que da pie a una aventura europea de proporciones cinematográficas. Cansado del triste tiempo londinense, Mr. Bean hace la maleta, coge la cámara y se va a Cannes en busca de sol y arena. Ah, las vacaciones… Pero el viaje no sale como está planeado ya que el patoso Mr. Bean sufre una serie de contratiempos y coincidencias más o menos afortunadas lo bastante estrambóticas como para ser el tema de una auténtica película vanguardista. Convertido en un supuesto secuestrador y en un aclamado realizador, no le quedará más remedio que explicar la destrucción que ha causado a su paso por el sur de Francia, acompañado del precoz hijo de un cineasta rumano y de una aspirante a actriz. ¿Le detendrán los gendarmes o se llevará la Palma de Oro?.

Capturas:

Datos Tecnicos:
DvdRip
Español Latino
Código:
Format                                   : AVI
Format/Info                              : Audio Video Interleave
File size                                : 701 MiB
Duration                                 : 1h 29mn
Overall bit rate mode                    : Variable
Overall bit rate                         : 1 094 Kbps
Writing application                      : VirtualDubMod 1.5.4.1 (build 2178/release)
Writing library                          : VirtualDubMod build 2178/release

Video
ID                                       : 0
Format                                   : MPEG-4 Visual
Format profile                           : Advanced Simple@L5
Format settings, BVOP                    : 1
Format settings, QPel                    : No
Format settings, GMC                     : No warppoints
Format settings, Matrix                  : Custom
Codec ID                                 : XVID
Codec ID/Hint                            : XviD
Duration                                 : 1h 29mn
Bit rate                                 : 965 Kbps
Width                                    : 576 pixels
Height                                   : 320 pixels
Display aspect ratio                     : 16:9
Frame rate                               : 23.976 fps
Color space                              : YUV
Chroma subsampling                       : 4:2:0
Bit depth                                : 8 bits
Scan type                                : Progressive
Compression mode                         : Lossy
Bits/(Pixel*Frame)                       : 0.218
Stream size                              : 618 MiB (88%)
Writing library                          : XviD 1.2.0.dev47 (UTC 2006-11-01)

Audio
ID                                       : 1
Format                                   : MPEG Audio
Format version                           : Version 1
Format profile                           : Layer 3
Mode                                     : Joint stereo
Mode extension                           : MS Stereo
Codec ID                                 : 55
Codec ID/Hint                            : MP3
Duration                                 : 1h 29mn
Bit rate mode                            : Variable
Bit rate                                 : 117 Kbps
Nominal bit rate                         : 128 Kbps
Channel(s)                               : 2 channels
Sampling rate                            : 48.0 KHz
Compression mode                         : Lossy
Stream size                              : 74.7 MiB (11%)
Alignment                                : Aligned on interleaves
Interleave, duration                     : 24 ms (0.58 video frame)
Interleave, preload duration             : 158 ms
Writing library                          : LAME3.97 
Encoding settings                        : -m j -V 4 -q 2 -lowpass 17 --abr 128
Language                                 : Spanish


.

Descargar Las Vacaciones de Mr. Bean [latino][1 link][DvdRip] Pelicula Gratis


01-mar-2012
popochy
Gold User
Re: Las Vacaciones de Mr. Bean [latino][1 link][DvdRip]
resubelos please

Necesitás estar Registrado para dejar comentarios en Las Vacaciones de Mr. Bean [latino][1 link][DvdRip]

Información del Post