Piña Express [Comedia][Dvd-rip][Latino][1 Link]


Descargar Piña Express [Comedia][Dvd-rip][Latino][1 Link] Película Gratis 1 link por Mega y Mediafire



Argentina Warez » Descargas Gratis » Películas Gratis Piña Express [Comedia][Dvd-rip][Latino][1 Link]
26-nov-2011
fucek
Platinum User
Piña Express [Comedia][Dvd-rip][Latino][1 Link]
Piña Express

Ficha Técnica:
Título Original: Pineapple Express
Año: 2008
País: Estados Unidos
Género: Comedia, Acción
Director: David Gordon Green
Reparto: Seth Rogen, James Franco, Bill Hader, James Remar, Amber Heard, Jo Lo Tuglio, Gary Cole, Rosie Perez, Ken Jeong, Mandy Henderson, Nora Dunn, Brian Scannell, Peter Lewis, Rio Ahn, Jonathan Spence, Adam Crosby, Sam Carson, Arthur Napiontek, Tom McComas

Sinopsis:
Dale Denton (Seth Rogen), cuyo trabajo es entregar citaciones legales, le compra la marihuana a un camello que se llama Saul (James Franco) porque le vende un nuevo tipo de hierba llamado “Pineapple Express”, en honor a un fenómeno atmosférico. Saul quiere hacerse amigo de Dale, pero éste sólo está interesado en los negocios. Casualmente, Dale es testigo de un asesinato cometido por una policía corrupta, Carol Butler (Rosie Perez), y por el líder de una banda, Ted Jones (Gary Cole). Por accidente se deja en la escena del crimen algo de la hierba de Saúl y ambos tienen que huir de la banda de criminales y de los agentes de la ley.

Capturas

Media-Info
DvdRip
Español Latino
Código:
Format                                   : AVI
Format/Info                              : Audio Video Interleave
File size                                : 702 MiB
Duration                                 : 1h 52mn
Overall bit rate                         : 876 Kbps
Writing application                      : VirtualDubMod 1.5.10.2 (build 2540/release)
Writing library                          : VirtualDubMod build 2540/release

Video
ID                                       : 0
Format                                   : MPEG-4 Visual
Format profile                           : Advanced Simple@L5
Format settings, BVOP                    : 2
Format settings, QPel                    : No
Format settings, GMC                     : No warppoints
Format settings, Matrix                  : Default (H.263)
Codec ID                                 : DX50
Codec ID/Hint                            : DivX 5
Duration                                 : 1h 52mn
Bit rate                                 : 754 Kbps
Width                                    : 664 pixels
Height                                   : 268 pixels
Display aspect ratio                     : 2.478
Frame rate                               : 23.976 fps
Color space                              : YUV
Chroma subsampling                       : 4:2:0
Bit depth                                : 8 bits
Scan type                                : Progressive
Compression mode                         : Lossy
Bits/(Pixel*Frame)                       : 0.177
Stream size                              : 605 MiB (86%)
Writing library                          : XviD 1.0.3 (UTC 2004-12-20)

Audio
ID                                       : 1
Format                                   : AC-3
Format/Info                              : Audio Coding 3
Mode extension                           : CM (complete main)
Codec ID                                 : 2000
Duration                                 : 1h 52mn
Bit rate mode                            : Constant
Bit rate                                 : 112 Kbps
Channel(s)                               : 2 channels
Channel positions                        : Front: L R
Sampling rate                            : 48.0 KHz
Bit depth                                : 16 bits
Compression mode                         : Lossy
Delay relative to video                  : 2s 0ms
Stream size                              : 89.8 MiB (13%)
Alignment                                : Split accross interleaves
Interleave, duration                     : 42 ms (1.00 video frame)
Interleave, preload duration             : 500 ms



.

Descargar Piña Express [Comedia][Dvd-rip][Latino][1 Link] Pelicula Gratis


26-nov-2011
blackeyespeas
Premier User
Re: Piña Express [Comedia][Dvd-rip][Latino][1 Link]
gracias amigo agregando a mi web ^_^
15-ene-2012
wwwluis
Silver User
Re: Piña Express [Comedia][Dvd-rip][Latino][1 Link]
graciias pana
29-mar-2012
angel_yaky
Platinum User
Re: Piña Express [Comedia][Dvd-rip][Latino][1 Link]
links caidos
: c

Necesitás estar Registrado para dejar comentarios en Piña Express [Comedia][Dvd-rip][Latino][1 Link]

Información del Post