El Origen del Planeta de los Simios (2011) BDRip 720p | ESP DTS 5.1 | V.O. DTS 5.1 [ MU FS US ]


Descargar El Origen del Planeta de los Simios (2011) BDRip 720p | ESP DTS 5.1 | V.O. DTS 5.1 [ MU FS US ] Película Gratis 1 link



Argentina Warez » Descargas Gratis » Películas Gratis El Origen del Planeta de los Simios (2011) BDRip 720p | ESP DTS 5.1 | V.O. DTS 5.1 [ MU FS US ]
27-nov-2011
Nukety
Premium User
El Origen del Planeta de los Simios (2011) BDRip 720p | ESP DTS 5.1 | V.O. DTS 5.1 [ MU FS US ]
El Origen del Planeta de los Simios (2011)


Sinopsis: Precuela del ya mítico largometraje "El planeta de los simios". Will Rodman (James Franco) es un joven científico que está investigando con monos para obtener un tratamiento contra el alzheimer, una enfermedad que afecta a su padre (John Lithgow). Uno de esos primates, un chimpancé recién nacido al que Will se llevó a casa para protegerlo, y al llama César (Andy Serkis), experimenta una evolución en su inteligencia verdaderamente sorprendente. En el estudio del simio le ayudará una bella primatóloga llamada Caroline

Título: El Origen del Planeta de los Simios
Título Original: Rise of the Planet of the Apes
Año: 2011
País: USA
Género: SciFi | Adventures | Action
Duración: 110min.
Director: Rupert Wyatt
Productora: 20th Century Fox / Dune Entertainment / Chernin Entertainment






Reparto:


HDRip 720p
Rip: BDRip
Formato: 720p
Contenedor: MKV
Audio: Castellano DTS 5.1 | V.O. DTS 5.1

Código:
Format                           : Matroska
File size                        : 7.07 GiB
Duration                         : 1h 44mn
Overall bit rate                 : 9 645 Kbps
Encoded date                     : UTC 2011-11-15 21:12:39
Writing application              : mkvmerge v4.8.0 ('I Got The...') creado el May 23 2011 22:30:05
Writing library                  : libebml v1.2.0 + libmatroska v1.1.0

Video
ID                               : 1
Format                           : AVC
Format/Info                      : Advanced Video Codec
Format profile                   : High@L4.1
Format settings, CABAC           : Yes
Format settings, ReFrames        : 12 frames
Format settings, GOP             : M=1, N=32
Codec ID                         : V_MPEG4/ISO/AVC
Duration                         : 1h 44mn
Bit rate                         : 6 841 Kbps
Nominal bit rate                 : 4 864 Kbps
Width                            : 1 280 pixels
Height                           : 544 pixels
Display aspect ratio             : 2.35:1
Frame rate                       : 23.976 fps
Color space                      : YUV
Chroma subsampling               : 4:2:0
Bit depth                        : 8 bits
Scan type                        : Progressive
Bits/(Pixel*Frame)               : 0.410
Stream size                      : 5.01 GiB (71%)
Writing library                  : x264 core 102 r1666 d058f37
Encoding settings                : cabac=1 / ref=12 / deblock=1:-3:-3 / analyse=0x3:0x113 / me=umh / subme=10 / psy=1 / psy_rd=1.05:0.10 / mixed_ref=1 / me_range=32 / chroma_me=1 / trellis=2 / 8x8dct=1 / cqm=2 / deadzone=21,11 / fast_pskip=0 / chroma_qp_offset=-2 / threads=6 / sliced_threads=0 / nr=0 / decimate=1 / interlaced=0 / constrained_intra=0 / bframes=6 / b_pyramid=2 / b_adapt=2 / b_bias=0 / direct=3 / weightb=1 / open_gop=0 / weightp=2 / keyint=250 / keyint_min=25 / scenecut=40 / intra_refresh=0 / rc_lookahead=40 / rc=2pass / mbtree=1 / bitrate=4864 / ratetol=1.0 / qcomp=0.60 / qpmin=10 / qpmax=51 / qpstep=4 / cplxblur=20.0 / qblur=0.5 / vbv_maxrate=50000 / vbv_bufsize=50000 / ip_ratio=1.40 / aq=1:0.80 / nal_hrd=none
Language                         : English

Audio #1
ID                               : 2
Format                           : DTS
Format/Info                      : Digital Theater Systems
Codec ID                         : A_DTS
Duration                         : 1h 44mn
Bit rate mode                    : Constant
Bit rate                         : 754 Kbps
Channel(s)                       : 6 channels
Channel positions                : Front: L C R, Side: L R, LFE
Sampling rate                    : 48.0 KHz
Bit depth                        : 24 bits
Compression mode                 : Lossy
Delay relative to video          : 11ms
Stream size                      : 566 MiB (8%)
Language                         : Spanish

Audio #2
ID                               : 3
Format                           : DTS
Format/Info                      : Digital Theater Systems
Format profile                   : MA / Core
Codec ID                         : A_DTS
Duration                         : 1h 44mn
Bit rate mode                    : Variable
Bit rate                         : 1 858 Kbps / 1 510 Kbps
Channel(s)                       : 6 channels
Channel positions                : Front: L C R, Side: L R, LFE
Sampling rate                    : 48.0 KHz
Bit depth                        : 24 bits
Compression mode                 : Lossless / Lossy
Language                         : English

Text #1
ID                               : 4
Format                           : UTF-8
Codec ID                         : S_TEXT/UTF8
Codec ID/Info                    : UTF-8 Plain Text
Title                            : Forzados
Language                         : Spanish

Text #2
ID                               : 5
Format                           : UTF-8
Codec ID                         : S_TEXT/UTF8
Codec ID/Info                    : UTF-8 Plain Text
Language                         : Spanish

Text #3
ID                               : 6
Format                           : UTF-8
Codec ID                         : S_TEXT/UTF8
Codec ID/Info                    : UTF-8 Plain Text
Language                         : English
Links de Descarga:

UploadStation

http://linksave.in/17745877044ecfd766a10a8

Fileserve

http://linksave.in/17158951304ecfd7254fc37

Megaupload

http://linksave.in/4341706914ecfd74a4ac65

Descargar El Origen del Planeta de los Simios (2011) BDRip 720p | ESP DTS 5.1 | V.O. DTS 5.1 [ MU FS US ] Pelicula Gratis



Necesitás estar Registrado para dejar comentarios en El Origen del Planeta de los Simios (2011) BDRip 720p | ESP DTS 5.1 | V.O. DTS 5.1 [ MU FS US ]

Información del Post