Piratas del Caribe, en Mareas Misteriosas [2011][BD-Rip 1080p AVC-Intra MKV][DTS Esp/Ing]


Descargar Piratas del Caribe, en Mareas Misteriosas [2011][BD-Rip 1080p AVC-Intra MKV][DTS Esp/Ing] Película Gratis 1 link por Mega y Mediafire



Argentina Warez » Descargas Gratis » Películas Gratis Piratas del Caribe, en Mareas Misteriosas [2011][BD-Rip 1080p AVC-Intra MKV][DTS Esp/Ing]
02-dic-2011
ricjosep
Silver User
Piratas del Caribe, en Mareas Misteriosas [2011][BD-Rip 1080p AVC-Intra MKV][DTS Esp/Ing]
Piratas del Caribe, en Mareas Misteriosas:



Título: Piratas del Caribe, en Mareas Misteriosas
Título Original: Pirates of the Caribbean, on Stranger Tides
País: EEUU
Duración: 132 min
Año: 2011
Género: Aventuras, Acción
Servidor: UploadStation, Filejungle y Fileserve
Codec: AVC-Intra 100
Audio: Español Digital Theater System (DTS 768 kbps)
Audio: Inglés Digital Theater System (DTS 768 kbps)
Subtitulos: Inglés y Español
Resolución: 1920x1080
Tamaño: 7.69 GB
Formato: MKV (.mkv)
Nº de Partes por Fileserve, Filejungle y UploadStation: 19 + 4 (458.7MB)

Media Info:

Spoiler
General
Format : Matroska
Format version : Version 2
File size : 7.69 GiB
Duration : 2h 12mn
Overall bit rate : 8 284 Kbps
Movie name : Piratas del Caribe, en Mareas Misteriosas by Ricjosep
Encoded date : UTC 2011-10-03 10:18:13
Writing application : mkvmerge v4.8.0 ('I Got The...') creado el May 24 2011 03:12:58
Writing library : libebml v1.2.0 + libmatroska v1.1.0

Video
ID : 1
Format : AVC
Format/Info : Advanced Video Codec
Format profile : High@L4.1
Format settings, CABAC : Yes
Format settings, ReFrames : 3 frames
Muxing mode : Header stripping
Codec ID : V_MPEG4/ISO/AVC
Duration : 2h 12mn
Bit rate mode : Variable
Bit rate : 6 610 Kbps
Maximum bit rate : 35.0 Mbps
Width : 1 920 pixels
Height : 1 080 pixels
Display aspect ratio : 16:9
Frame rate : 23.976 fps
Standard : NTSC
Color space : YUV
Chroma subsampling : 4:2:0
Bit depth : 8 bits
Scan type : Progressive
Bits/(Pixel*Frame) : 0.133
Stream size : 6.13 GiB (80%)
Color primaries : BT.709-5, BT.1361, IEC 61966-2-4, SMPTE RP177
Transfer characteristics : BT.709-5, BT.1361
Matrix coefficients : BT.709-5, BT.1361, IEC 61966-2-4 709, SMPTE RP177

Audio #1
ID : 2
Format : DTS
Format/Info : Digital Theater Systems
Muxing mode : Header stripping
Codec ID : A_DTS
Duration : 2h 12mn
Bit rate mode : Constant
Bit rate : 755 Kbps
Channel(s) : 6 channels
Channel positions : Front: L C R, Side: L R, LFE
Sampling rate : 48.0 KHz
Bit depth : 24 bits
Compression mode : Lossy
Stream size : 717 MiB (9%)
Title : Castellano
Language : Spanish

Audio #2
ID : 3
Format : DTS
Format/Info : Digital Theater Systems
Muxing mode : Header stripping
Codec ID : A_DTS
Duration : 2h 12mn
Bit rate mode : Constant
Bit rate : 755 Kbps
Channel(s) : 6 channels
Channel positions : Front: L C R, Side: L R, LFE
Sampling rate : 48.0 KHz
Bit depth : 24 bits
Compression mode : Lossy
Stream size : 717 MiB (9%)
Title : Ingles
Language : English

Text #1
ID : 4
Format : PGS
Muxing mode : zlib
Codec ID : S_HDMV/PGS
Codec ID/Info : The same subtitle format used on BDs/HD-DVDs
Title : Español Forzado
Language : Spanish

Text #2
ID : 5
Format : PGS
Muxing mode : zlib
Codec ID : S_HDMV/PGS
Codec ID/Info : The same subtitle format used on BDs/HD-DVDs
Title : Español
Language : Spanish

Text #3
ID : 6
Format : PGS
Muxing mode : zlib
Codec ID : S_HDMV/PGS
Codec ID/Info : The same subtitle format used on BDs/HD-DVDs
Title : Ingles
Language : English

Text #4
ID : 7
Format : PGS
Muxing mode : zlib
Codec ID : S_HDMV/PGS
Codec ID/Info : The same subtitle format used on BDs/HD-DVDs
Title : Ingles
Language : English


Sinopsis:

Cuando Jack Sparrow (Johnny Depp) vuelve a encontrarse con una mujer a la que había conocido años atrás (Penélope Cruz), no está seguro de si se trata de amor o si ella es una estafadora sin escrúpulos que lo está utilizando para encontrar la legendaria Fuente de la Juventud. A todo esto, Jack es capturado por el Queen Anne's Revenge, el barco del temible pirata Barbanegra (Ian McShane), que lo obliga a unirse a su tripulación, lo que le hará vivir una inesperada aventura en la que no sabe quién le inspira más miedo si Barbanegra o esa mujer que regresa del pasado.

Enlaces:





http://ncrypt.in/folder-h9NlOaGY

Muestras:



Descargar Piratas del Caribe, en Mareas Misteriosas [2011][BD-Rip 1080p AVC-Intra MKV][DTS Esp/Ing] Pelicula Gratis


12-ago-2012
ricjosep
Silver User
Re: Piratas del Caribe, en Mareas Misteriosas [2011][BD-Rip 1080p AVC-Intra MKV][DTS Esp/Ing]
re-subido a rapidgator

Necesitás estar Registrado para dejar comentarios en Piratas del Caribe, en Mareas Misteriosas [2011][BD-Rip 1080p AVC-Intra MKV][DTS Esp/Ing]

Información del Post