Argentina Warez » Descargas Gratis » Películas Gratis Tu a Londres y Yo a California[DvdRip][castellano][comedia][1998][fj-ul]
08-dic-2011
flakemo
Baneado ;(
Tu a Londres y Yo a California[DvdRip][castellano][comedia][1998][fj-ul]




Tu a Londres y Yo a California

[ 1998 | DvdRip | castellano | comedia | Duracion:2h 3mn | Uploader: evilsega ]

SINOPSIS Hallie y Annie, dos gemelas que se parecen como dos gotas de agua, fueron separadas poco después de nacer, a causa del divorcio de sus padres. Hallie vive en Napa Valley con su padre, que es viticultor. Por su parte, Annie vive en Londres con su madre, una famosa diseñadora de trajes de novia. Ninguna de las dos conoce la existencia de la otra, pero el destino hace que se encuentren por casualidad en Maine, en un campamento de verano. Antes de volver a casa, las niñas urden un plan para conseguir reunir a sus padres, pero hay un inconveniente con el que no contaban: su padre proyecta casarse con otra mujer.







TÍTULO ORIGINAL The Parent Trap
AÑO 1998
DURACIÓN
123 min.
PAÍS [Estados Unidos]
DIRECTOR Nancy Meyers
GUIÓN David Swift, Nancy Meyers, Charles Shyer (Novela: Erich Kästner)
MÚSICA Alan Silvestri
FOTOGRAFÍA Dean Cundey
REPARTO Dennis Quaid, Natasha Richardson, Lindsay Lohan, Lisa Ann Walter, Elaine Hendrix, Ronnie Stevens, Simon Kunz
PRODUCTORA Walt Disney Pictures
GÉNERO Comedia. Infantil | Cine familiar. Remake




SINOPSIS Hallie y Annie, dos gemelas que se parecen como dos gotas de agua, fueron separadas poco después de nacer, a causa del divorcio de sus padres. Hallie vive en Napa Valley con su padre, que es viticultor. Por su parte, Annie vive en Londres con su madre, una famosa diseñadora de trajes de novia. Ninguna de las dos conoce la existencia de la otra, pero el destino hace que se encuentren por casualidad en Maine, en un campamento de verano. Antes de volver a casa, las niñas urden un plan para conseguir reunir a sus padres, pero hay un inconveniente con el que no contaban: su padre proyecta casarse con otra mujer.





Spoiler

Código:
General
Complete name                            : D:\\tu a londres y yo a california.evilsega.avi
Format                                   : AVI
Format/Info                              : Audio Video Interleave
File size                                : 1.36 GiB
Duration                                 : 2h 3mn
Overall bit rate                         : 1 582 Kbps
Writing library                          : VirtualDub build 13722/release

Video
ID                                       : 0
Format                                   : MPEG-4 Visual
Format settings, BVOP                    : Yes
Format settings, QPel                    : No
Format settings, GMC                     : No warppoints
Format settings, Matrix                  : Default (H.263)
Codec ID                                 : XVID
Codec ID/Hint                            : XviD
Duration                                 : 2h 3mn
Bit rate                                 : 1 444 Kbps
Width                                    : 720 pixels
Height                                   : 528 pixels
Display aspect ratio                     : 4:3
Frame rate                               : 25.000 fps
Color space                              : YUV
Chroma subsampling                       : 4:2:0
Bit depth                                : 8 bits
Scan type                                : Progressive
Compression mode                         : Lossy
Bits/(Pixel*Frame)                       : 0.152
Stream size                              : 1.24 GiB (91%)

Audio
ID                                       : 1
Format                                   : MPEG Audio
Format version                           : Version 1
Format profile                           : Layer 3
Mode                                     : Joint stereo
Mode extension                           : MS Stereo
Codec ID                                 : 55
Codec ID/Hint                            : MP3
Duration                                 : 2h 3mn
Bit rate mode                            : Constant
Bit rate                                 : 128 Kbps
Channel(s)                               : 2 channels
Sampling rate                            : 48.0 KHz
Compression mode                         : Lossy
Stream size                              : 113 MiB (8%)
Alignment                                : Split accross interleaves
Interleave, duration                     : 40 ms (1.00 video frame)
Interleave, preload duration             : 475 ms
Writing library                          : LAME3.96.1










http://linkseguro.info//view.php?id=918





http://ul.to/jzxyype8/tu a londres y yo a california.evilsega.part1.rar
http://ul.to/f6vfujij/tu a londres y yo a california.evilsega.part2.rar
http://ul.to/b5syb18i/tu a londres y yo a california.evilsega.part3.rar


Enlaces caidos? Alguna duda? algun error? Mandame Mp ñ_ñ

Descargar Tu a Londres y Yo a California[DvdRip][castellano][comedia][1998][fj-ul] Pelicula Gratis


17-jun-2013
pedro6510
New User
Re: Tu a Londres y Yo a California[DvdRip][castellano][comedia][1998][fj-ul]
Mp ñ_ñ

Necesitás estar Registrado para dejar comentarios en Tu a Londres y Yo a California[DvdRip][castellano][comedia][1998][fj-ul]

Información del Post